<?xml version="1.0" standalone="no"?>
<!DOCTYPE svg PUBLIC "-//W3C//DTD SVG 1.1//EN" "http://www.w3.org/Graphics/SVG/1.1/DTD/svg11.dtd" >
<svg xmlns="http://www.w3.org/2000/svg" xmlns:xlink="http://www.w3.org/1999/xlink" version="1.1">
<metadata></metadata>
<defs>
<font id="josefin_sansregular" horiz-adv-x="1079" >
<font-face units-per-em="2048" ascent="1536" descent="-512" />
<missing-glyph horiz-adv-x="503" />
<glyph horiz-adv-x="0" />
<glyph horiz-adv-x="0" />
<glyph unicode="&#xd;" horiz-adv-x="614" />
<glyph unicode=" "  horiz-adv-x="503" />
<glyph unicode="&#x09;" horiz-adv-x="503" />
<glyph unicode="&#xa0;" horiz-adv-x="503" />
<glyph unicode="!" horiz-adv-x="518" d="M121 111q4 39 31.5 61.5t60.5 22.5q31 0 53.5 -22.5t18.5 -61.5q-4 -35 -32.5 -59.5t-59.5 -24.5q-33 0 -54.5 24.5t-17.5 59.5zM170 342l147 1206h121l-147 -1206h-121z" />
<glyph unicode="&#x22;" horiz-adv-x="684" d="M195 975l63 512h123l-72 -512h-114zM471 975l64 512h120l-71 -512h-113z" />
<glyph unicode="#" horiz-adv-x="1175" d="M68 416q6 29 14 58.5t12 57.5h211q16 66 30.5 130.5t33.5 130.5h-207l24 116h209l105 418h118q-27 -104 -51 -207.5t-51 -210.5h260l103 418h120q-29 -104 -53 -207.5t-49 -210.5h236l-27 -116h-238l-63 -261h235l-28 -116h-236l-100 -416h-121l100 416h-258 q-25 -104 -51.5 -208t-48.5 -208h-121q25 104 50.5 207.5t47.5 208.5h-206zM424 532h260l64 261h-259q-16 -66 -32.5 -130.5t-32.5 -130.5z" />
<glyph unicode="$" horiz-adv-x="1132" d="M23 119l77 123q66 -47 165.5 -83t199.5 -38l76 620q-63 25 -123 52.5t-106 64.5t-74.5 86t-28.5 119q0 72 29.5 140.5t85 122.5t133.5 92t174 48l16 131h86l-16 -127q55 -2 112.5 -11t106.5 -22.5t87 -27t58 -23.5l-65 -112q-68 29 -152 48t-164 21l-59 -497 q68 -27 136.5 -57.5t123.5 -75.5t90 -108.5t35 -153.5q0 -98 -36 -179.5t-100.5 -140.5t-155.5 -96t-199 -47l-15 -127h-86l15 123q-86 0 -155 16t-122 37.5t-91 44t-58 37.5zM352 1090q0 -80 59.5 -128.5t147.5 -82.5l55 456q-123 -20 -192.5 -89.5t-69.5 -155.5zM551 127 q57 8 116.5 30.5t108.5 59.5t80 91t31 126q0 55 -21.5 97t-57.5 74t-84 56.5t-101 47.5z" />
<glyph unicode="%" horiz-adv-x="1386" d="M119 778q0 55 23.5 105.5t63.5 87.5t91 58.5t106 21.5q45 0 86 -17.5t71 -47.5t47.5 -71t17.5 -88q0 -57 -23.5 -106t-63.5 -86t-91.5 -58.5t-104.5 -21.5q-96 0 -159.5 63.5t-63.5 159.5zM240 788q0 -49 31.5 -82.5t84.5 -33.5q59 0 102.5 43t43.5 102q0 49 -31 82 t-82 33q-61 0 -105 -42.5t-44 -101.5zM250 0q184 260 369.5 516t371.5 516h131q-186 -260 -370.5 -516t-370.5 -516h-131zM760 207q0 55 23.5 104t61.5 86t89 58.5t106 21.5q47 0 88 -17.5t71 -47t47.5 -70.5t17.5 -86q0 -57 -23.5 -107.5t-63.5 -87t-90.5 -58t-105.5 -21.5 q-96 0 -158.5 64.5t-62.5 160.5zM879 215q0 -49 31.5 -83t84.5 -34q61 0 104.5 43t43.5 103q0 49 -32 82.5t-85 33.5q-61 0 -104 -43t-43 -102z" />
<glyph unicode="&#x26;" horiz-adv-x="1329" d="M68 362q0 90 34.5 168t95 139.5t139.5 103.5t165 58q-39 63 -65.5 110.5t-37.5 72.5q-18 47 -31.5 92t-13.5 96q0 78 32 141.5t84 107.5t122 68.5t143 24.5q90 2 162 -25.5t117 -58.5q0 -2 -11.5 -15t-23.5 -28.5t-23.5 -28t-11.5 -14.5q-37 23 -81 40.5t-97 21.5 q-53 2 -105.5 -11.5t-93.5 -43t-66.5 -74.5t-25.5 -105q0 -57 15.5 -99t19.5 -48l432 -676l234 461h120l-286 -564l176 -276h-135q-2 0 -34 46t-83 122q-72 -82 -188.5 -133t-251.5 -51q-96 0 -175 28.5t-134.5 78.5t-86 120t-30.5 151zM184 375q0 -68 27 -120t72 -88 t104 -54.5t127 -18.5q51 0 104.5 12.5t101.5 34t88 51t69 64.5q-74 109 -156 232.5t-154 238.5q-68 -2 -135 -28.5t-122.5 -72.5t-90.5 -110.5t-35 -140.5z" />
<glyph unicode="'" horiz-adv-x="413" d="M195 975l63 512h125l-72 -512h-116z" />
<glyph unicode="(" horiz-adv-x="565" d="M84 451q0 180 41 343.5t107.5 303t149.5 252t167 190.5l94 -47q-80 -78 -157.5 -184.5t-140 -238.5t-101.5 -285.5t-39 -327.5q0 -121 17.5 -230.5t48 -206t70.5 -175t83 -136.5l-105 -47q-47 57 -90 140t-75.5 184.5t-51 219.5t-18.5 245z" />
<glyph unicode=")" horiz-adv-x="567" d="M-68 -297q78 78 157 184.5t141.5 238.5t101.5 285.5t39 327.5q0 119 -17.5 229.5t-48.5 207t-70.5 175.5t-82.5 136q27 12 52 24.5t52 26.5q47 -59 90 -142t75 -184.5t51.5 -218t19.5 -241.5q0 -182 -41 -346t-108 -304.5t-149.5 -252t-168.5 -191.5q-23 12 -46.5 23.5 t-46.5 21.5z" />
<glyph unicode="*" horiz-adv-x="800" d="M182 1075l201 105l-172 110q10 18 23.5 37t25.5 35l176 -111l27 224h90q-6 -55 -14.5 -110.5t-14.5 -113.5l205 109q8 -16 16.5 -34.5t16.5 -37.5l-207 -110q45 -27 89 -53.5t89 -55.5q-16 -18 -28.5 -37.5t-28.5 -40.5l-172 111l-31 -213h-82l27 213 q-49 -27 -99.5 -52.5t-99.5 -54.5z" />
<glyph unicode="+" horiz-adv-x="931" d="M76 420l14 115h311l39 313h121l-39 -313h312l-15 -115h-311l-39 -316h-121l39 316h-311z" />
<glyph unicode="," horiz-adv-x="473" d="M-66 -248q55 109 107.5 213.5t105.5 212.5h127l-229 -426h-111z" />
<glyph unicode="-" horiz-adv-x="641" d="M104 365l15 116h381l-15 -116h-381z" />
<glyph unicode="." horiz-adv-x="425" d="M74 76q0 39 28.5 65.5t63.5 26.5q29 0 50.5 -21.5t21.5 -54.5q0 -41 -30 -66.5t-63 -25.5q-29 0 -50 20.5t-21 55.5z" />
<glyph unicode="/" horiz-adv-x="860" d="M8 -39q193 393 382.5 779t381.5 780h121q-193 -393 -382 -779.5t-382 -779.5h-121z" />
<glyph unicode="0" horiz-adv-x="1337" d="M123 573q0 152 46 294.5t130 251t205 174t268 65.5q137 0 232.5 -59.5t152.5 -155.5t75.5 -220t2.5 -255q-20 -154 -79.5 -280t-145.5 -216t-192.5 -139t-223.5 -49q-102 0 -188.5 43t-149.5 119.5t-98 185t-35 241.5zM250 674q-16 -123 6.5 -228.5t71.5 -181.5 t121.5 -120t158.5 -44q94 0 187.5 49.5t165 136.5t116.5 206.5t45 259.5q0 94 -22.5 182t-67.5 156.5t-113.5 109.5t-162.5 41q-109 0 -196 -49t-151.5 -130t-105.5 -182.5t-53 -205.5z" />
<glyph unicode="1" horiz-adv-x="608" d="M166 1225l14 116h297l-164 -1341h-123l150 1225h-174z" />
<glyph unicode="2" horiz-adv-x="1081" d="M55 0q152 133 295.5 260t254 248t177 234.5t66.5 220.5q0 76 -23.5 129t-60.5 85.5t-80 48t-82 15.5q-96 0 -159.5 -36t-100.5 -86t-52.5 -107.5t-15.5 -100.5q0 -113 60 -184l-82 -72q-47 41 -71.5 114t-24.5 144q0 86 31.5 166t91 142.5t144.5 99.5t193 37 q82 0 147.5 -29t112 -79t71 -117.5t24.5 -143.5q0 -117 -54.5 -228.5t-140.5 -219t-195.5 -213t-220.5 -211.5h590l-14 -117h-881z" />
<glyph unicode="3" horiz-adv-x="966" d="M33 127l98 84q35 -51 90 -81t127 -30q70 0 136.5 29t117.5 77t82 111.5t31 135.5q0 59 -22.5 111t-60.5 91t-90.5 61.5t-113.5 22.5q-71 0 -137 -41q102 133 210.5 263.5t213.5 263.5h-490l15 116h688q-102 -125 -204.5 -249.5t-203.5 -251.5q68 -12 126.5 -45t99 -82 t64.5 -111.5t24 -136.5q0 -98 -42 -185t-111 -154t-159 -104.5t-186 -37.5t-173 38.5t-130 104.5z" />
<glyph unicode="4" horiz-adv-x="1081" d="M-8 358q221 248 451.5 501t451.5 499l-109 -883h201l-14 -117h-201l-43 -358h-121l43 358h-659zM240 475h426l67 555q-55 -63 -118.5 -134t-128 -142.5t-127 -143t-119.5 -135.5z" />
<glyph unicode="5" horiz-adv-x="956" d="M49 106l98 80q37 -41 88.5 -63.5t114.5 -22.5q70 0 136.5 29t116.5 77t81 111.5t31 133.5q0 59 -21.5 111t-60.5 91t-91.5 61.5t-113.5 22.5t-125 -18.5t-113 -63.5l84 686h594l-14 -116h-489l-50 -400q31 12 62 20.5t67 8.5q88 0 161 -29.5t124 -82t79 -123t28 -150.5 q0 -100 -42 -188t-112 -155t-160 -104.5t-186 -37.5q-86 0 -160 31.5t-127 90.5z" />
<glyph unicode="6" horiz-adv-x="1095" d="M86 371q0 111 38 209t100.5 186t144.5 166t169 145.5t175 126t164 109.5l63 -94q-100 -61 -191.5 -127t-167 -127.5t-132 -115.5t-82.5 -95q41 45 97 72.5t118 27.5q84 0 155.5 -30.5t123.5 -84t82 -124t30 -152.5q0 -98 -41 -185.5t-109.5 -153t-159 -103t-186.5 -37.5 q-76 0 -146.5 26.5t-124.5 75.5t-87 121t-33 164zM211 387q0 -59 20.5 -111.5t57.5 -91.5t88 -61.5t112 -22.5q70 0 135.5 28t117 76t81 111.5t29.5 135.5q0 59 -21.5 111t-60.5 91t-90 61.5t-113 22.5q-70 0 -134 -27.5t-113.5 -75.5t-79 -111.5t-29.5 -135.5z" />
<glyph unicode="7" horiz-adv-x="944" d="M139 0q160 293 328 603t334 622h-656l15 116h844q-186 -346 -365.5 -674.5t-359.5 -666.5h-140z" />
<glyph unicode="8" horiz-adv-x="1093" d="M86 371q0 82 25.5 152.5t69.5 127t101.5 95t118.5 59.5q-59 33 -88.5 89t-29.5 118q0 72 29.5 134t78.5 109.5t113.5 75t134.5 27.5q61 0 112.5 -21.5t88.5 -60.5t58.5 -91t21.5 -114q0 -86 -45.5 -154.5t-129.5 -111.5q98 -35 163 -125t65 -219q0 -96 -39 -182 t-106.5 -152t-158.5 -104.5t-196 -38.5q-88 0 -159.5 30.5t-122 84t-78 123t-27.5 149.5zM211 387q0 -59 20.5 -110.5t57.5 -91.5t87 -62.5t109 -22.5q70 0 136.5 29t116.5 77t81 111.5t31 133.5q0 59 -21.5 111t-59.5 91t-89 61.5t-113 22.5q-70 0 -134 -26.5t-113.5 -74.5 t-79 -111.5t-29.5 -137.5zM401 1020q0 -72 51.5 -119t129.5 -47q45 0 85 15.5t70.5 43t49 64.5t18.5 80q0 76 -49 130t-127 54q-45 0 -86 -18.5t-73 -49t-50.5 -70.5t-18.5 -83z" />
<glyph unicode="9" horiz-adv-x="1091" d="M141 834q0 98 41 185t110.5 152.5t160 103.5t186.5 38q80 0 154.5 -30t130 -85t84 -136t16.5 -185q-20 -158 -105 -290t-201 -243t-245 -200t-235 -160q-16 23 -32 47t-30 47q100 61 191.5 125.5t167 126t131 117t84.5 96.5q-41 -47 -97.5 -74t-120.5 -27 q-84 0 -154.5 31t-123.5 83t-83 124t-30 154zM262 846q0 -59 21.5 -111.5t60.5 -91.5t91 -61.5t114 -22.5q66 0 126 24.5t108 67.5t80 101.5t40 124.5t-10.5 124t-55 101t-91 68.5t-119.5 25.5q-72 0 -137.5 -27.5t-115.5 -76t-81 -111.5t-31 -135z" />
<glyph unicode=":" horiz-adv-x="423" d="M70 76q0 39 29.5 65.5t64.5 26.5q29 0 50.5 -21.5t21.5 -54.5q0 -41 -30 -66.5t-63 -25.5q-29 0 -51 20.5t-22 55.5zM135 616q0 39 30 66t64 27q29 0 51.5 -21.5t22.5 -54.5q0 -41 -29.5 -66.5t-64.5 -25.5q-29 0 -51.5 20t-22.5 55z" />
<glyph unicode=";" horiz-adv-x="514" d="M-61 -248q53 109 105 213.5t108 212.5h127q-59 -109 -116 -213t-116 -213h-108zM199 592q0 39 29.5 65.5t64.5 26.5q29 0 50.5 -21.5t21.5 -54.5q0 -41 -30 -66.5t-63 -25.5q-29 0 -51 20.5t-22 55.5z" />
<glyph unicode="&#x3c;" horiz-adv-x="1142" d="M63 492q242 129 482.5 260t482.5 260l-18 -160q-168 -90 -336 -179t-334 -181q145 -92 291 -181.5t289 -179.5l-19 -162z" />
<glyph unicode="=" horiz-adv-x="1329" d="M104 260l15 117h1044l-14 -117h-1045zM154 659l14 119h1044l-14 -119h-1044z" />
<glyph unicode="&#x3e;" horiz-adv-x="1146" d="M98 -31l21 162l669 361l-581 360l18 160q211 -129 419 -260t419 -260z" />
<glyph unicode="?" horiz-adv-x="976" d="M152 1210q23 49 59.5 102.5t89.5 97.5t125 72.5t164 28.5q80 0 145.5 -28.5t112.5 -77.5t73.5 -114.5t26.5 -141.5q0 -129 -66.5 -222t-183.5 -171q-37 -25 -72.5 -45.5t-66.5 -47t-52.5 -65.5t-29.5 -98l-20 -162h-121l24 201q8 66 35 106.5t67 71.5t89 58.5t102 68.5 q90 63 131 137t41 160q0 111 -68.5 182.5t-181.5 71.5q-119 0 -198.5 -58.5t-126.5 -162.5zM285 94q0 39 29.5 65.5t62.5 26.5q29 0 50.5 -21.5t21.5 -53.5q0 -41 -31 -67t-62 -26q-29 0 -50 20.5t-21 55.5z" />
<glyph unicode="@" horiz-adv-x="1916" d="M70 322q0 176 72.5 344t203.5 298t310.5 209.5t394.5 79.5q174 0 310 -58t230.5 -156.5t144.5 -229.5t50 -274q0 -139 -33 -239.5t-88 -166.5t-127 -97.5t-149 -31.5h-220l11 84q4 23 6 43t6 39q-18 -35 -52 -66.5t-78 -58.5t-99.5 -42t-118.5 -15q-86 0 -156 29.5 t-119 80.5t-76.5 120.5t-27.5 147.5q0 96 40 183.5t106.5 152t153.5 102.5t183 38q61 0 112.5 -16.5t90.5 -44t63.5 -61.5t34.5 -67l29 170h104l-88 -715h113q45 0 92 24t86 74t63.5 129t24.5 191q0 125 -43 238.5t-124 200t-199.5 136.5t-270.5 50q-195 0 -352.5 -71.5 t-270 -188.5t-173 -263.5t-60.5 -295.5q0 -139 49.5 -259t136.5 -210t207.5 -141.5t262.5 -51.5q123 0 238.5 37t217.5 102l56 -77q-115 -82 -254.5 -125t-276.5 -43q-160 0 -297 59t-237.5 162.5t-156.5 242t-56 298.5zM578 379q0 -61 20 -112.5t58 -90.5t90.5 -60.5 t113.5 -21.5q74 0 140.5 28t115.5 75t78 111.5t29 135.5q0 59 -20.5 111.5t-58.5 90.5t-90.5 59.5t-115.5 21.5q-74 0 -139.5 -26.5t-114.5 -73.5t-77.5 -110.5t-28.5 -137.5z" />
<glyph unicode="A" horiz-adv-x="1320" d="M-41 0q41 74 106.5 195.5t142.5 267t161 302.5t160.5 302t142 266t106.5 197q23 -76 58.5 -197t76.5 -266t87.5 -302t87 -302.5t76.5 -267t59 -195.5h-142q-29 94 -67.5 231.5t-79.5 290.5h-561q-78 -154 -150.5 -291t-124.5 -231h-139zM436 643h467q-43 154 -82 293 t-67 235q-2 8 -5.5 28t-7.5 36q-6 -16 -15 -36t-13 -28q-53 -96 -126 -235t-151 -293z" />
<glyph unicode="B" horiz-adv-x="1189" d="M139 0l180 1462h343q186 0 296.5 -74.5t110.5 -246.5q0 -63 -14.5 -127t-46 -117t-85 -95t-128.5 -63q51 -10 98 -33.5t84 -62.5t58.5 -91t21.5 -122q0 -111 -44 -191.5t-117 -134t-166 -79t-189 -25.5h-402zM295 127h250q76 0 143.5 18.5t118.5 56.5t81 95t30 133 q0 66 -28 113t-74 76.5t-107.5 43t-126.5 13.5h-220zM377 797h246q74 0 130 24.5t95 67.5t59.5 100.5t20.5 122.5q0 117 -73 170t-193 53h-220z" />
<glyph unicode="C" horiz-adv-x="1316" d="M115 639q0 178 70.5 331.5t188.5 266.5t271.5 177.5t321.5 64.5q55 0 111.5 -7.5t105.5 -21.5t90 -32.5t67 -41.5q-12 -16 -19 -26.5t-14.5 -21.5t-17.5 -25.5t-24 -36.5q-59 41 -144.5 61.5t-165.5 20.5q-139 0 -266 -55.5t-223 -148.5t-152.5 -216t-56.5 -258 q0 -109 37 -207t105.5 -173t168 -119t222.5 -44q59 0 115.5 9t105.5 24.5t87 32t60 32.5l49 -127q-72 -41 -184.5 -77.5t-255.5 -36.5q-156 0 -276.5 52t-204.5 141t-128 209t-44 253z" />
<glyph unicode="D" horiz-adv-x="1460" d="M139 0l180 1462h340q199 0 337.5 -58t223.5 -151.5t122.5 -212t37.5 -237.5q0 -182 -69.5 -330.5t-184 -253t-264 -162t-311.5 -57.5h-412zM297 133h256q139 0 264 46t219 132t149.5 209t55.5 277q0 113 -38 210t-109.5 168.5t-174 111.5t-233.5 40h-242z" />
<glyph unicode="E" horiz-adv-x="1251" d="M139 0l180 1462h922l-16 -127h-783l-65 -534h700l-16 -131h-701l-65 -539h811l-16 -131h-951z" />
<glyph unicode="F" horiz-adv-x="1136" d="M139 0l180 1462h838l-16 -129h-699l-67 -553h616l-16 -131h-617l-79 -649h-140z" />
<glyph unicode="G" horiz-adv-x="1398" d="M113 631q0 180 71.5 335.5t190.5 269.5t274.5 178.5t321.5 64.5q104 0 208.5 -27t182.5 -78l-84 -114q-63 41 -151.5 64.5t-174.5 23.5q-133 0 -259 -54.5t-223 -148.5t-156.5 -220t-59.5 -268q0 -111 38 -209t107.5 -171.5t170 -116.5t225.5 -43q68 0 144.5 15t147.5 46 l46 369h-316l14 123h445l-70 -582q-90 -49 -200.5 -76.5t-227.5 -27.5q-158 0 -280.5 49t-208.5 136t-131 206t-45 256z" />
<glyph unicode="H" horiz-adv-x="1533" d="M139 0l180 1462h142l-82 -659h831l82 659h144q-8 -72 -22.5 -187.5t-32 -253.5t-37 -288.5t-37 -289t-32.5 -255t-24 -188.5h-139l82 670h-832l-81 -670h-142z" />
<glyph unicode="I" horiz-adv-x="559" d="M139 0l180 1462h142l-180 -1462h-142z" />
<glyph unicode="J" horiz-adv-x="610" d="M-178 -299l16 131q74 4 138.5 31.5t115.5 79t86 127t47 174.5l150 1218h139l-149 -1224q-16 -127 -64.5 -226.5t-121.5 -167t-165 -104.5t-192 -39z" />
<glyph unicode="K" horiz-adv-x="1273" d="M139 0l180 1462h154l-76 -614q-2 -16 -6 -32.5t-8 -35.5q10 14 22.5 24.5t22.5 24.5q182 154 359.5 316t361.5 317h180q-168 -152 -337 -304t-339 -304q145 -219 277.5 -427t275.5 -427h-176q-129 195 -247.5 378t-250.5 380q-41 -37 -81.5 -72t-83.5 -70 q-20 -160 -37 -308t-37 -308h-154z" />
<glyph unicode="L" horiz-adv-x="1148" d="M139 0l180 1462h140l-164 -1329h778l-16 -133h-918z" />
<glyph unicode="M" horiz-adv-x="1839" d="M139 0l189 1528q31 -57 79 -140t103 -179.5t114.5 -197t114 -193.5t100.5 -171t74 -127q20 27 78 96.5t134.5 161.5t165.5 199.5t174 211t160 192.5t124 147l-188 -1528h-148l127 1042q4 18 8 39t6 35q-41 -49 -97 -117.5t-118.5 -146.5t-128 -159t-127 -156.5 t-112.5 -141t-86 -108.5q-23 37 -64 105.5t-90 153.5t-100 176t-96.5 171t-79 140.5t-45.5 82.5q-2 -14 -1 -34.5t-3 -39.5l-127 -1042h-140z" />
<glyph unicode="N" horiz-adv-x="1662" d="M139 0l189 1530q49 -76 123.5 -174.5t161.5 -209t179.5 -227t178.5 -226t159.5 -207t120.5 -169.5q4 -10 14.5 -25.5t18.5 -29.5l2 68l139 1132h140l-189 -1530q-49 72 -124.5 171.5t-164 212t-181.5 230.5t-179 230.5t-156.5 209.5t-115.5 169q-4 8 -15.5 23.5 t-19.5 29.5v-65l-141 -1143h-140z" />
<glyph unicode="O" horiz-adv-x="1691" d="M119 729q18 154 94 290t189.5 238.5t257 162t296.5 59.5q143 0 264 -53.5t209.5 -145.5t138.5 -215t50 -262q0 -168 -69.5 -316.5t-187.5 -260t-270.5 -177t-318.5 -65.5q-154 0 -283 58t-218 159.5t-129 237.5q-28 94 -29 197q0 46 6 93zM258 729q-5 -41 -6 -80 q0 -83 24 -159q34 -112 106.5 -194.5t177 -130.5t228.5 -48q135 0 260.5 53t220.5 145.5t152.5 215t57.5 260.5q0 115 -41 216t-113 175.5t-170 117.5t-215 43q-127 0 -242.5 -48t-209 -132t-155 -195.5t-75.5 -238.5z" />
<glyph unicode="P" horiz-adv-x="1128" d="M139 0l180 1462h355q84 0 161.5 -22.5t137 -69.5t94.5 -117.5t35 -167.5q0 -90 -31 -179t-95.5 -159.5t-164.5 -115.5t-242 -45h-219l-71 -586h-140zM367 719h217q109 0 181.5 37t115.5 90t61.5 112.5t18.5 104.5q0 51 -18.5 99t-55.5 86t-93.5 60.5t-131.5 22.5h-220z " />
<glyph unicode="Q" horiz-adv-x="1701" d="M115 653q0 166 69.5 316.5t186 263.5t269.5 179.5t318 66.5q143 0 264 -53.5t209.5 -145.5t138.5 -215t50 -262q0 -109 -29.5 -207t-83 -185t-128 -160t-165.5 -128l375 10l-16 -133h-641q-41 -8 -79 -12t-79 -4q-143 0 -264 52t-209 142t-137 213t-49 262zM254 668 q0 -115 40 -215.5t111.5 -175t170 -117.5t215.5 -43q135 0 260 53t220 145.5t152.5 215t57.5 260.5q0 115 -41 216t-113 175.5t-170 117.5t-215 43q-135 0 -260 -54t-220 -146t-151.5 -215t-56.5 -260z" />
<glyph unicode="R" horiz-adv-x="1232" d="M139 0l180 1462h355q84 0 161.5 -22.5t137 -69.5t94.5 -117.5t35 -167.5q0 -66 -17.5 -132t-52.5 -126.5t-90 -111.5t-131 -84q20 -47 63.5 -135t90.5 -184.5t90 -182.5t65 -129h-170q-18 37 -56 113.5t-81 164t-85 172.5t-71 140q-20 -4 -42.5 -4h-45.5h-219l-71 -586 h-140zM367 719h217q109 0 181.5 37t115.5 90t61.5 112.5t18.5 104.5q0 51 -18.5 99t-55.5 86t-93.5 60.5t-131.5 22.5h-220z" />
<glyph unicode="S" horiz-adv-x="1134" d="M20 119l78 123q68 -47 169.5 -84t203.5 -37q59 0 131 17.5t135.5 54t105.5 96t42 145.5t-50.5 140.5t-126 93.5t-162.5 70.5t-163 72.5t-126 100.5t-50 151.5q0 80 34.5 152.5t99.5 130t155 91t200 33.5q57 0 116.5 -9t112 -22.5t93.5 -28t61 -24.5l-65 -112 q-68 29 -153 49t-167 20q-78 0 -141.5 -20t-108.5 -55t-69.5 -81t-24.5 -97q0 -72 50.5 -116t125 -79t161.5 -66.5t162 -80t125 -119t50 -180.5q0 -104 -39 -190.5t-112.5 -147t-179 -94t-236.5 -33.5q-86 0 -157 15t-125 36.5t-92 44t-63 39.5z" />
<glyph unicode="T" horiz-adv-x="1095" d="M182 1329l17 133h915l-16 -133h-389l-164 -1329h-142l164 1329h-385z" />
<glyph unicode="U" horiz-adv-x="1421" d="M182 498l119 964h139l-116 -958q-3 -30 -4 -59q0 -54 13 -101q19 -72 63 -122t110.5 -77.5t148.5 -27.5q80 0 154 27.5t131 77.5t96 122t49 160l117 958h139l-118 -964q-14 -121 -66.5 -216.5t-131.5 -161t-178 -101t-208 -35.5q-111 0 -202 35.5t-153 100.5 q-60 66 -88 162q-18 63 -19 137q0 38 5 79z" />
<glyph unicode="V" horiz-adv-x="1325" d="M141 1462h140q20 -70 46.5 -164t56.5 -200.5t60.5 -220t60.5 -220t56.5 -201t46.5 -163.5l13 -66l28 66q37 70 87 164t105.5 200.5t114 220t114.5 220t105.5 201t88.5 163.5h141q-41 -76 -106.5 -196.5t-143.5 -266t-161 -302t-160.5 -301t-143 -266.5t-106.5 -198 q-23 76 -57.5 198t-76.5 266.5t-87.5 301t-87.5 302t-76.5 266t-57.5 196.5z" />
<glyph unicode="W" horiz-adv-x="1929" d="M145 1458h158q27 -100 57.5 -216t61.5 -232.5t59.5 -228t52 -205t39 -161t19.5 -96.5l8 -61q2 6 12.5 29.5t14.5 29.5q2 6 17 37t38 77t51.5 103.5t57.5 116.5q68 139 153 312q-31 127 -53 231q-10 45 -20.5 88t-18.5 80t-14.5 62.5t-6.5 33.5h136q66 -248 120 -469 q25 -94 49.5 -192.5t46 -187.5t40 -164.5t28.5 -125.5q4 -16 5 -30.5t4 -30.5l24 61q12 29 45 97.5t79 163t102.5 206t116 228t118.5 231.5t110 213h148q-66 -127 -142.5 -274.5t-154.5 -300t-154.5 -300t-141 -274.5t-114 -225t-73.5 -150l-219 826q-4 8 -7.5 20.5 t-3.5 22.5q-4 -4 -6 -12.5t-6 -14.5q-4 -8 -6 -16q-82 -160 -160 -311q-33 -66 -68.5 -134.5t-70.5 -136t-66.5 -131t-56.5 -115.5q-106 385 -203.5 764t-204.5 762z" />
<glyph unicode="X" horiz-adv-x="1216" d="M-33 0q29 37 75 96.5t100.5 131t112.5 147.5t112.5 147.5t99.5 131t74 96.5q-18 35 -48 91t-66 124.5t-74 141.5t-72.5 140.5t-64.5 123.5t-48 91h172q25 -49 63.5 -124.5t80.5 -157.5t81 -159t66 -126l18 -49l31 49q37 49 94 126t116.5 159t117 157.5t94.5 124.5h166 l-545 -719q18 -37 50 -96t69 -130t76.5 -146.5t76.5 -146t68 -129t51 -95.5h-174l-270 524q-10 20 -27.5 58.5t-30.5 60.5q-10 -14 -18 -28.5t-12 -18.5l-443 -596h-172z" />
<glyph unicode="Y" horiz-adv-x="1300" d="M145 1462h158q29 -61 71 -155.5t89 -200t94 -214t86 -198.5l16 -61l33 61q61 90 134 198.5t144.5 214t135 200t108.5 155.5h160l-659 -952l-64 -510h-141l63 510q-23 45 -56.5 120t-74.5 166t-84 190t-84 190.5t-74.5 166t-54.5 119.5z" />
<glyph unicode="Z" horiz-adv-x="1298" d="M-43 0q61 74 150.5 183.5t192.5 236.5t213 262t212 261t191.5 232.5t150.5 176.5h-721q-66 0 -106 26q-34 22 -34 67q0 9 1 19l8 72h129l-4 -27q-4 -29 10 -38t49 -9h920l-1102 -1327h977l-16 -135h-1221z" />
<glyph unicode="[" horiz-adv-x="626" d="M84 -307l227 1847h375l-14 -117h-254l-199 -1613h254l-14 -117h-375z" />
<glyph unicode="\" horiz-adv-x="864" d="M195 1520h133l385 -1559h-133z" />
<glyph unicode="]" horiz-adv-x="626" d="M-47 -307l14 117h254l199 1613h-254l14 117h375l-227 -1847h-375z" />
<glyph unicode="^" horiz-adv-x="786" d="M199 989l293 373q51 -92 100 -186.5t102 -186.5h-90q-12 25 -29.5 53.5t-35 59.5t-35 60.5t-29.5 51.5q-18 -23 -42.5 -52t-51.5 -60t-51.5 -59.5t-42.5 -53.5h-88z" />
<glyph unicode="_" horiz-adv-x="1089" d="M66 0l14 117h825l-14 -117h-825z" />
<glyph unicode="`" horiz-adv-x="413" d="M78 1264h123q37 -70 74.5 -138.5t78.5 -136.5h-90z" />
<glyph unicode="a" d="M55 362q0 96 40 183.5t107.5 152t154.5 102.5t182 38q61 0 112 -16.5t90 -44t63.5 -61.5t35.5 -67l28 170h105l-101 -819h-112l10 84q4 23 6 43t6 39q-18 -35 -51 -66.5t-78 -58.5t-100 -42t-119 -15q-86 0 -155.5 29.5t-118.5 80.5t-77 120.5t-28 147.5zM168 379 q0 -61 20.5 -112.5t58.5 -90.5t90 -60.5t116 -21.5q74 0 139 28t114.5 75t78 111.5t28.5 135.5q0 59 -20.5 111.5t-57.5 90.5t-89 59.5t-116 21.5q-74 0 -139 -26.5t-114.5 -73.5t-79 -110.5t-29.5 -137.5z" />
<glyph unicode="b" horiz-adv-x="1081" d="M68 0l192 1569h113l-113 -922q47 76 140.5 133.5t211.5 57.5q84 0 153 -28t118 -77t75.5 -118.5t26.5 -153.5q0 -100 -38 -187.5t-103.5 -152t-152.5 -101t-187 -36.5q-115 0 -197 53t-108 131q-4 -20 -4 -39.5t-5 -42.5l-10 -86h-112zM227 379q0 -61 20.5 -112.5 t58.5 -90.5t90.5 -60.5t115.5 -21.5q74 0 138.5 28t111.5 76t74.5 111t27.5 137q0 59 -19.5 110.5t-55 89.5t-87 59.5t-112.5 21.5q-74 0 -139.5 -26.5t-114.5 -73.5t-79 -110.5t-30 -137.5z" />
<glyph unicode="c" horiz-adv-x="843" d="M55 367q0 96 40 182t107.5 150.5t155.5 101.5t185 37q78 0 144.5 -25t117.5 -70q-20 -23 -41 -42t-41 -42q-78 68 -193 68q-74 0 -140 -27.5t-115.5 -74.5t-78 -110.5t-28.5 -137.5q0 -59 20.5 -111.5t58.5 -90.5t90 -59.5t116 -21.5q59 0 111.5 17.5t97.5 50.5l59 -84 q-61 -45 -133 -69.5t-150 -24.5q-84 0 -153.5 29.5t-120.5 81.5t-80 122t-29 150z" />
<glyph unicode="d" horiz-adv-x="1081" d="M57 362q0 100 39 187.5t104.5 151t151.5 100.5t183 37q63 0 114 -16.5t90 -43t64.5 -61.5t38.5 -70l112 922h113l-193 -1569h-112l10 84q4 23 8 44.5t6 41.5q-51 -76 -143 -131t-215 -55q-86 0 -154.5 29.5t-116.5 80.5t-74 119.5t-26 148.5zM170 377q0 -59 20.5 -111.5 t58.5 -90.5t90 -59.5t116 -21.5q74 0 139 28t114.5 75t78 110.5t28.5 136.5q0 59 -20.5 111.5t-58.5 90.5t-90 59.5t-114 21.5q-74 0 -140 -26.5t-115.5 -74.5t-78 -111.5t-28.5 -137.5z" />
<glyph unicode="e" horiz-adv-x="929" d="M55 367q0 96 40 182t107.5 150.5t154.5 102.5t182 38q135 0 225 -81t121 -210q-72 -27 -161 -60.5t-183.5 -69.5t-186.5 -72t-172 -66q27 -84 97.5 -135.5t169.5 -51.5q66 0 127 22.5t108 61.5l74 -80q-66 -53 -150 -83.5t-170 -30.5q-84 0 -153.5 29.5t-120.5 81.5 t-80 122t-29 150zM170 356q68 27 142.5 55.5t150.5 58.5t150 57.5t135 50.5q-27 70 -85.5 109.5t-136.5 39.5q-72 0 -136 -27.5t-113.5 -76t-78 -109.5t-28.5 -129v-29z" />
<glyph unicode="f" horiz-adv-x="602" d="M72 707l14 110h141l29 242q31 250 166 376t336 134l-15 -109q-152 -4 -252 -109.5t-122 -291.5l-29 -242h268l-14 -110h-268l-86 -707h-113l86 707h-141z" />
<glyph unicode="g" horiz-adv-x="1081" d="M33 -223l82 78q72 -78 140.5 -109t145.5 -31q172 0 256 81t103 212q4 16 5 28.5t7 47.5q0 6 3 19.5t5 28.5t5 28.5t3 17.5q-47 -78 -140 -136t-218 -58q-84 0 -152.5 28.5t-117.5 79.5t-76 120.5t-27 149.5q0 100 39 186.5t104.5 151t151.5 101.5t180 37 q68 0 121.5 -18.5t92 -46.5t63.5 -60.5t33 -63.5q4 41 13 84t15 86h105l-98 -805q-10 -88 -46 -162.5t-96.5 -129t-146.5 -85t-197 -30.5q-117 0 -197.5 43t-160.5 127zM170 377q0 -59 20.5 -111.5t58.5 -90.5t90 -59.5t116 -21.5q74 0 139 28t114.5 75t78 110.5t28.5 136.5 q0 59 -20.5 111.5t-58.5 90.5t-90 59.5t-114 21.5q-74 0 -140 -26.5t-115.5 -74.5t-78 -111.5t-28.5 -137.5z" />
<glyph unicode="h" horiz-adv-x="983" d="M68 0l192 1569h113l-117 -948q53 94 145.5 154.5t214.5 62.5q122 0 186 -68q55 -59 56 -149q0 -14 -2 -29l-72 -592h-112l67 553q1 9 1 18q0 58 -34 101q-40 49 -131 53q-66 0 -124 -21.5t-104 -60.5t-75.5 -92t-38.5 -117l-53 -434h-112z" />
<glyph unicode="i" horiz-adv-x="387" d="M68 0l100 819h113l-101 -819h-112zM180 1108q0 39 29 64.5t63 25.5q29 0 49.5 -20.5t20.5 -53.5q0 -41 -27.5 -65.5t-62.5 -24.5q-29 0 -50.5 19.5t-21.5 54.5z" />
<glyph unicode="j" horiz-adv-x="387" d="M-88 -311q61 53 102 127.5t54 177.5l100 825h113l-101 -825q-16 -129 -68 -226.5t-130 -160.5q-35 39 -70 82zM182 1108q0 39 30 64.5t62 25.5q31 0 52.5 -20.5t21.5 -53.5q0 -41 -28.5 -65.5t-63.5 -24.5q-29 0 -51.5 19.5t-22.5 54.5z" />
<glyph unicode="k" horiz-adv-x="837" d="M68 0l192 1569h113l-140 -1143q127 106 246 205.5t246 208.5l59 -70q-88 -72 -165.5 -140.5t-165.5 -140.5l297 -489h-132l-253 414l-150 -123l-35 -291h-112z" />
<glyph unicode="l" horiz-adv-x="395" d="M72 0l192 1569h113l-193 -1569h-112z" />
<glyph unicode="m" horiz-adv-x="1570" d="M68 0l100 819h96q0 -18 -2 -48t-5 -61.5t-5 -59t-4 -42.5q59 102 149 165t213 65q115 0 177.5 -60.5t62.5 -159.5q59 98 147 159t209 61q124 0 186 -68q54 -59 54 -148q0 -14 -2 -30l-72 -592h-112l67 553q1 9 1 18q0 58 -35 101q-40 49 -130 53q-63 0 -119.5 -21.5 t-101.5 -59.5t-74.5 -90t-38.5 -114l-53 -440h-112l67 553q1 9 1 18q0 58 -35 101q-40 49 -128 53q-66 0 -123 -21.5t-102 -60.5t-73.5 -92t-37.5 -117l-53 -434h-112z" />
<glyph unicode="n" horiz-adv-x="983" d="M68 0l100 819h96l-16 -211q59 102 154.5 166t218.5 64q121 0 183 -68q53 -59 54 -148q0 -14 -2 -30l-72 -592h-112l67 553q1 9 1 18q0 58 -34 101q-40 49 -131 53q-66 0 -124 -21.5t-104 -60.5t-75.5 -92t-38.5 -117l-53 -434h-112z" />
<glyph unicode="o" horiz-adv-x="1013" d="M57 410q10 88 53.5 166.5t109 137t148.5 92.5t173 34q84 0 153.5 -30t119.5 -82t78 -122.5t28 -150.5q0 -96 -39 -182.5t-105.5 -151t-155 -101t-186.5 -36.5q-90 0 -163.5 31.5t-125 89t-75.5 135.5q-16 52 -17 111q0 29 4 59zM170 410q-3 -21 -3 -41q1 -43 13 -83 q18 -58 54 -100.5t91.5 -67t120.5 -24.5q72 0 136.5 28t113.5 75t79 110.5t30 134.5q0 59 -21.5 111.5t-58.5 90.5t-88 60.5t-113 22.5q-66 0 -127 -24.5t-108 -67.5t-79 -101t-40 -124z" />
<glyph unicode="p" d="M18 -393l150 1212h108q0 -6 -2 -26.5t-5 -46t-6 -52t-5 -47.5q47 76 141.5 133.5t212.5 57.5q84 0 153 -28t118 -77t75.5 -118.5t26.5 -153.5q0 -100 -38 -187.5t-103.5 -152t-152.5 -101t-187 -36.5q-115 0 -197 53t-108 131q-4 -20 -4 -39.5t-5 -42.5l-59 -479h-113z M227 379q0 -61 20.5 -112.5t58.5 -90.5t90.5 -60.5t113.5 -21.5q74 0 138.5 28t112.5 76t74.5 111t26.5 137q0 121 -73.5 201t-200.5 80q-74 0 -139.5 -26.5t-114.5 -73.5t-78 -110.5t-29 -137.5z" />
<glyph unicode="q" horiz-adv-x="1081" d="M57 362q0 100 39 187.5t104.5 151t151.5 100.5t183 37q63 0 114 -16.5t90 -43t64.5 -61.5t38.5 -70q2 20 6 47t8 52.5t7 46t3 26.5h109l-150 -1212h-112l59 477q4 23 8 44.5t6 41.5q-51 -76 -143 -131t-215 -55q-86 0 -154.5 29.5t-116.5 80.5t-74 119.5t-26 148.5z M170 377q0 -59 20.5 -111.5t58.5 -90.5t90 -59.5t116 -21.5q74 0 139 28t114.5 75t78 110.5t28.5 136.5q0 59 -20.5 111.5t-58.5 90.5t-90 59.5t-114 21.5q-74 0 -140 -26.5t-115.5 -74.5t-78 -111.5t-28.5 -137.5z" />
<glyph unicode="r" horiz-adv-x="600" d="M68 0l100 819h96l-16 -211q31 53 76 95t95 72t101 46.5t96 16.5l-38 -142q-61 0 -120 -19.5t-106 -54t-78.5 -85t-40.5 -111.5l-53 -426h-112z" />
<glyph unicode="s" horiz-adv-x="677" d="M14 86q10 8 23.5 22.5t26 26.5t20.5 21.5t10 9.5q6 -10 23.5 -22.5t43 -23.5t55.5 -19.5t58 -8.5q27 0 57.5 8.5t56.5 25.5t43.5 45t17.5 65q0 41 -26 66.5t-65 44t-83 35.5t-82.5 42t-64.5 61.5t-26 96.5q0 68 27 115.5t67 77.5t88 44.5t93 14.5q53 0 113.5 -23 t101.5 -70l-70 -79q-16 23 -61 42t-94 19q-23 0 -48.5 -6t-48 -21.5t-37 -39t-14.5 -58.5q0 -41 25.5 -66.5t63.5 -44t82 -37t82 -43t63.5 -61.5t25.5 -94q0 -55 -20.5 -103.5t-59.5 -85t-94 -58t-125 -21.5t-139.5 24.5t-108.5 77.5z" />
<glyph unicode="t" horiz-adv-x="581" d="M53 709l13 102h163l45 367h113l-45 -367h244l-13 -102h-243l-86 -709h-113l86 709h-164z" />
<glyph unicode="u" horiz-adv-x="980" d="M88 227l72 592h112l-67 -553v-13q0 -62 35 -106q39 -49 129 -53q63 0 121.5 21.5t104.5 59.5t76.5 91t39.5 117l53 436h113l-103 -829h-94l16 221q-55 -102 -151 -165.5t-221 -63.5q-122 0 -184 68q-54 58 -53 147q0 15 1 30z" />
<glyph unicode="v" horiz-adv-x="870" d="M53 819h121q47 -123 78 -216t54.5 -168t41 -139.5t39.5 -129.5q37 66 69.5 130t73.5 139t95.5 168t132.5 216h121q-135 -219 -259.5 -434t-259.5 -434q-88 219 -155.5 434t-151.5 434z" />
<glyph unicode="w" horiz-adv-x="1318" d="M59 819h113l184 -653q35 68 76 145q35 66 81 153t97 179l-57 176h100l205 -653l354 653h113l-494 -868l-184 581l-317 -581z" />
<glyph unicode="x" horiz-adv-x="817" d="M-27 0q86 106 173 212t173 212q-57 98 -118.5 197.5t-120.5 197.5h139q47 -86 92 -156.5t92 -154.5q68 84 130.5 154.5t130.5 154.5h127q-43 -53 -84 -102t-81 -96.5t-81 -96.5t-86 -104q59 -98 127.5 -209t126.5 -209h-142q-51 84 -101 161t-101 161 q-68 -84 -133.5 -160t-135.5 -162h-127z" />
<glyph unicode="y" horiz-adv-x="909" d="M55 819h121q47 -123 80 -221t58.5 -179t45 -150.5t41.5 -135.5q37 66 73 135.5t81 150.5t102.5 179t135.5 221h120l-708 -1212h-119q33 55 60.5 103t55 97.5l57.5 103.5t69 122q-72 188 -136.5 392t-136.5 394z" />
<glyph unicode="z" horiz-adv-x="823" d="M-18 0l598 721h-347q-69 -1 -105 29q-30 24 -29 71q0 10 1 21l6 55h105l-4 -27q-4 -29 11 -40t50 -11h529l-588 -708h493l-14 -111h-706z" />
<glyph unicode="{" horiz-adv-x="624" d="M129 551l16 125q51 2 86 30.5t57.5 69.5t35 89t18.5 89l43 342q12 94 35.5 144.5t56.5 73t73 24.5t83 2h110l-14 -117h-100q-31 0 -53.5 -10t-38 -34.5t-25.5 -67.5t-18 -107l-35 -282q-10 -76 -28.5 -127.5t-42 -87t-49.5 -56t-50 -35.5q20 -14 41.5 -35.5t37 -57.5 t20.5 -87t-3 -125l-35 -282q-16 -129 1.5 -174t80.5 -45h100l-14 -117h-110q-45 0 -85 2t-67 26.5t-37 80t2 161.5l37 309q6 43 5 90.5t-13 89.5t-41 69.5t-80 29.5z" />
<glyph unicode="|" horiz-adv-x="501" d="M63 -479l236 1925h119l-236 -1925h-119z" />
<glyph unicode="}" horiz-adv-x="620" d="M-43 -307l14 117h101q31 0 53 10t37.5 34.5t25 66.5t17.5 108l39 311q8 66 27.5 113t44 78.5t50 52t46.5 32.5q-20 14 -41 35t-36.5 56.5t-22.5 87t3 127.5l35 282q8 63 8 106.5t-9 68t-28.5 34.5t-50.5 10h-100l14 117h109q43 0 83 -2t67.5 -23.5t40 -71.5t-0.5 -147 l-39 -313q-4 -41 -6 -92t8.5 -98.5t39 -81t83.5 -35.5l-16 -125q-55 -2 -91 -35t-58.5 -80t-34 -99t-15.5 -91l-37 -309q-12 -96 -35.5 -145.5t-57.5 -72t-74.5 -24.5t-83.5 -2h-109z" />
<glyph unicode="~" horiz-adv-x="958" d="M213 965q8 41 28.5 71.5t49 52t60.5 31.5t63 10q47 0 81.5 -18t63.5 -53t50.5 -46.5t49.5 -11.5q14 0 35 4.5t40.5 15.5t34.5 31.5t24 51.5l67 -4q-6 -41 -27.5 -72t-50 -52.5t-60.5 -31.5t-63 -10q-47 0 -80.5 19.5t-62.5 52.5q-29 35 -51.5 46t-50.5 11q-16 0 -36 -4 t-39.5 -15.5t-34.5 -32t-23 -50.5z" />
<glyph unicode="&#xa1;" horiz-adv-x="512" d="M74 -434l147 1206h121l-147 -1206h-121zM229 1004q4 35 32 59t61 24q31 0 53 -24.5t18 -58.5q-4 -39 -32.5 -61.5t-59.5 -22.5q-33 0 -54.5 22.5t-17.5 61.5z" />
<glyph unicode="&#xa2;" horiz-adv-x="874" d="M57 367q0 86 33 164.5t89.5 140t131 103.5t158.5 56l14 121h86l-14 -114q76 -2 139.5 -27t112.5 -68q-20 -23 -41 -42t-41 -42q-74 63 -182 68l-78 -633q55 2 105.5 19.5t93.5 48.5l59 -84q-59 -43 -129 -67.5t-143 -26.5l-15 -123h-86l15 129q-68 12 -124.5 46t-97.5 84 t-63.5 112.5t-22.5 134.5zM170 377q0 -102 56.5 -177t152.5 -98l76 617q-61 -14 -112.5 -46t-90.5 -76t-60.5 -100.5t-21.5 -119.5z" />
<glyph unicode="&#xa3;" horiz-adv-x="1208" d="M16 0l15 117h90q35 0 57.5 10t37.5 36.5t24.5 75t19.5 121.5l29 232h-137l14 117h135l45 364q8 72 44 129.5t92.5 97t131 61t160.5 21.5q143 0 220 -53t112 -145l-96 -51q-14 25 -30.5 49t-43.5 42.5t-68 30t-104 11.5q-145 0 -216 -60.5t-83 -158.5l-41 -338h248 l-15 -117h-247l-37 -295q-8 -59 -20.5 -105t-47.5 -75h412q63 0 107 5t71 17.5t39 33t16 52.5l13 101h120l-18 -150q-4 -37 -15.5 -68.5t-39 -55t-77.5 -38t-134 -14.5h-783z" />
<glyph unicode="&#xa4;" horiz-adv-x="933" d="M154 489l82 72q-43 66 -43 148q0 59 21.5 109t57.5 91l-57 68l68 59l57 -65q41 29 87 45t97 16t93 -17.5t75 -45.5l74 67l53 -61l-71 -64q18 -29 27 -66.5t9 -76.5q0 -59 -21.5 -109.5t-62.5 -95.5l60 -71l-66 -60l-63 70q-39 -27 -85 -41.5t-93 -14.5t-89 14.5t-75 39.5 l-80 -70zM281 719q0 -80 52 -135.5t130 -55.5q47 0 90 18.5t74.5 50.5t51 74t19.5 89q0 78 -51 133t-133 55q-45 0 -87 -18.5t-75 -49t-52 -72.5t-19 -89z" />
<glyph unicode="&#xa5;" horiz-adv-x="1357" d="M170 1462h158q29 -61 70.5 -155.5t89 -200t94.5 -214t86 -198.5l16 -61l33 61q61 90 134 198.5t144.5 214t135 200t108.5 155.5h160l-582 -839h207l-10 -84h-254l-21 -29l-26 -221h270l-10 -84h-271l-26 -205h-141l26 205h-270l10 84h270l27 221l-14 29h-252l10 84h203 q-43 92 -96.5 212.5t-106.5 241.5t-99 225.5t-73 159.5z" />
<glyph unicode="&#xa6;" horiz-adv-x="507" d="M66 -481l88 723h118l-88 -723h-118zM213 723l90 723h119l-90 -723h-119z" />
<glyph unicode="&#xa7;" horiz-adv-x="768" d="M134.5 695.5q-1.5 52.5 14 102.5t46 94t77.5 75q84 49 183 32q-23 41 -41.5 84t-38.5 88q-29 61 -36 106.5t0 78.5t26.5 56.5t48.5 41.5q35 29 79 50.5t85 43.5l47 -100q-23 -12 -48.5 -24.5t-48.5 -26.5q-53 -29 -59 -73t37 -136h2l145 -309q20 -47 22.5 -97.5 t-14 -99.5t-49 -92t-80.5 -74q-86 -53 -182 -37l82 -174q29 -61 37 -106t0 -79t-28.5 -57.5t-47.5 -42.5q-33 -29 -77 -50t-85 -44q-10 25 -22 50.5t-23 52.5l95 51q29 14 43 32.5t15 45t-11 63.5t-39 90q-35 72 -57.5 120t-37 80t-23.5 51.5t-15 35.5q-20 45 -21.5 97.5z M254 707q2 -55 43 -89t96 -32q35 2 65.5 16t53.5 39t36 55.5t13 63.5q0 66 -43 104.5t-104 38.5q-41 -4 -73 -21.5t-53.5 -45t-30.5 -61t-3 -68.5z" />
<glyph unicode="&#xa8;" horiz-adv-x="763" d="M256 1051q0 39 29.5 65.5t64.5 26.5q29 0 50.5 -21.5t21.5 -54.5q0 -41 -31 -66.5t-63 -25.5q-29 0 -50.5 20.5t-21.5 55.5zM623 1051q0 39 29.5 65.5t64.5 26.5q29 0 50 -21.5t21 -54.5q0 -41 -30.5 -66.5t-63.5 -25.5q-29 0 -50 20.5t-21 55.5z" />
<glyph unicode="&#xa9;" horiz-adv-x="1323" d="M154 705q0 125 48 232t131 185t190.5 123t228.5 45q100 0 186 -34.5t148.5 -97t97.5 -149.5t35 -190q0 -123 -48.5 -230.5t-130.5 -185t-190 -122.5t-227 -45q-102 0 -188.5 34.5t-149 98t-97 148.5t-34.5 188zM203 709q0 -92 31.5 -170t88 -134.5t133.5 -89t169 -32.5 q109 0 208 41t173.5 111.5t118.5 167.5t44 210q0 94 -31.5 173t-88 136.5t-135 89t-171.5 31.5q-106 0 -204.5 -41t-173 -112.5t-118.5 -170t-44 -210.5zM360 725q0 80 32 149.5t85 121t123 81t148 29.5q51 0 96 -13.5t71 -33.5q-10 -14 -14 -21.5t-20 -27.5 q-29 18 -67 27.5t-73 9.5q-63 0 -120.5 -25t-100.5 -68t-68.5 -98t-25.5 -117q0 -49 16.5 -94t47 -79t75.5 -53t101 -19q53 0 100 15t68 30l20 -58q-31 -18 -82 -35.5t-117 -17.5q-70 0 -125 23.5t-93 64.5t-57.5 94.5t-19.5 114.5z" />
<glyph unicode="&#xaa;" horiz-adv-x="876" d="M139 889q0 70 29 131t78 108.5t112.5 75t130.5 27.5q90 0 145.5 -44t72.5 -91l20 121h76l-72 -590h-84l8 61q2 16 5.5 30.5t5.5 26.5q-29 -47 -94.5 -89t-157.5 -42q-61 0 -111.5 21.5t-87.5 58.5t-56.5 87.5t-19.5 107.5zM221 899q0 -88 57.5 -146.5t147.5 -58.5 q53 0 100 19.5t83 54.5t56.5 81t20.5 99q0 86 -56.5 144.5t-148.5 58.5q-53 0 -100 -19.5t-82 -53.5t-56.5 -80t-21.5 -99z" />
<glyph unicode="&#xab;" horiz-adv-x="929" d="M84 494q29 25 84 76t114.5 106t115 106.5t83.5 75.5l-16 -137q-25 -23 -55.5 -52.5t-62.5 -61.5t-63.5 -61.5t-56.5 -51.5q18 -23 42 -52.5t48.5 -62.5t48 -63.5t42.5 -53.5l-17 -135zM436 494q29 25 84 76t114.5 106t115 106.5t86.5 75.5l-17 -135q-25 -23 -56.5 -52.5 t-63 -62.5t-62.5 -62.5t-55 -51.5q18 -23 41.5 -52.5t48 -62.5t48 -63.5t42.5 -53.5l-17 -135z" />
<glyph unicode="&#xac;" horiz-adv-x="1046" d="M143 418l11 88h743l-25 -201h-120l14 113h-623z" />
<glyph unicode="&#xad;" horiz-adv-x="641" d="M104 365l15 116h381l-15 -116h-381z" />
<glyph unicode="&#xae;" horiz-adv-x="1323" d="M154 705q0 125 48 232t131 185t190.5 123t228.5 45q100 0 186 -34.5t148.5 -97t97.5 -149.5t35 -190q0 -123 -48.5 -230.5t-130.5 -185t-190 -122.5t-227 -45q-102 0 -188.5 34.5t-149 98t-97 148.5t-34.5 188zM203 709q0 -92 31.5 -170t88 -134.5t133.5 -89t169 -32.5 q109 0 208 41t173.5 111.5t118.5 167.5t44 210q0 94 -31.5 173t-88 136.5t-135 89t-171.5 31.5q-106 0 -204.5 -41t-173 -112.5t-118.5 -170t-44 -210.5zM467 430l86 692h168q80 0 140.5 -44t60.5 -134q0 -66 -33 -126t-105 -91q10 -23 31 -63.5t42.5 -86t42 -86t30.5 -61.5 h-80q-8 16 -25.5 53t-38 78t-40 82t-31.5 66q-10 -2 -21.5 -2h-21.5h-105l-35 -277h-65zM575 770h103q51 0 86 17.5t55.5 43t28.5 53t8 50.5q0 47 -35 86t-106 39h-105z" />
<glyph unicode="&#xaf;" horiz-adv-x="825" d="M299 997l10 80h475l-10 -80h-475z" />
<glyph unicode="&#xb0;" horiz-adv-x="600" d="M178 1135q0 43 17.5 81.5t47 66.5t69.5 44t83 16q72 0 119 -48t47 -119q0 -43 -17.5 -82t-47 -67t-67.5 -44t-81 -16q-76 0 -123 48t-47 120zM260 1143q0 -41 27.5 -70t70.5 -29q49 0 87 36t38 87q0 41 -27.5 70t-70.5 29q-49 0 -87 -36t-38 -87z" />
<glyph unicode="&#xb1;" horiz-adv-x="1067" d="M123 217l14 117h744l-15 -117h-743zM188 750l15 116h311l39 312h121l-39 -312h311l-14 -116h-311l-39 -314h-121l39 314h-312z" />
<glyph unicode="&#xb2;" horiz-adv-x="694" d="M162 768q76 66 146.5 128t124.5 121.5t87 116t33 109.5q0 37 -11.5 63.5t-29.5 43t-38.5 23.5t-39.5 7q-47 0 -78.5 -17t-50 -42t-27 -53.5t-8.5 -50.5q0 -55 29 -91l-41 -34q-23 20 -35 56t-12 71q0 43 15.5 82.5t45 69.5t72.5 48.5t96 18.5q82 0 129 -51.5t47 -129.5 q0 -59 -26.5 -113t-70.5 -108.5t-98.5 -107t-109.5 -103.5h293l-6 -57h-436z" />
<glyph unicode="&#xb3;" horiz-adv-x="593" d="M139 842l49 41q35 -55 107 -56q35 0 67.5 14.5t57 38t40 55.5t15.5 66q0 59 -41 100.5t-100 41.5q-33 -1 -68 -21q49 66 104.5 129.5t104.5 128.5h-242l7 60h340l-201 -248q68 -12 112 -62.5t44 -121.5q0 -49 -20.5 -92.5t-54.5 -76t-79 -51t-92 -18.5t-85 19.5t-65 52.5 z" />
<glyph unicode="&#xb4;" horiz-adv-x="524" d="M328 989l219 275h121q-61 -70 -125 -138.5t-127 -136.5h-88z" />
<glyph unicode="&#xb5;" horiz-adv-x="1091" d="M61 -412l76 611q-4 12 0 28l72 592h115l-68 -553q-6 -70 34 -119t128 -53q63 0 122.5 21.5t105.5 59.5t77 91t39 117l53 436h113l-103 -829h-94l14 221q-55 -102 -150 -165.5t-220 -63.5q-92 0 -150 38l-53 -432h-111z" />
<glyph unicode="&#xb6;" horiz-adv-x="1110" d="M154 1176q0 76 30.5 144.5t84 118.5t122 79.5t146.5 29.5h454l-190 -1548h-119l176 1432h-217l-176 -1432h-119l107 872q-66 0 -120 24t-94 64.5t-62.5 96t-22.5 119.5z" />
<glyph unicode="&#xb7;" horiz-adv-x="423" d="M131 573q0 39 28.5 66t63.5 27q29 0 50.5 -21.5t21.5 -54.5q0 -41 -29.5 -66.5t-62.5 -25.5q-29 0 -50.5 20t-21.5 55z" />
<glyph unicode="&#xb8;" horiz-adv-x="933" d="M190 -354q18 10 37 18t39 17q6 -37 34 -60.5t73 -23.5q59 0 97 40.5t38 100.5q0 43 -21.5 66.5t-46 43t-44 40t-15.5 55.5l6 57h78l-2 -14q-4 -29 2 -46.5t18.5 -28.5t25.5 -19.5t26 -16.5q35 -29 49 -64.5t14 -72.5q0 -49 -16.5 -92t-46 -74t-71.5 -49.5t-93 -18.5 q-63 0 -113.5 35t-67.5 107z" />
<glyph unicode="&#xb9;" horiz-adv-x="378" d="M195 1384l6 54h135l-76 -617h-55l69 563h-79z" />
<glyph unicode="&#xba;" horiz-adv-x="817" d="M141 922q8 63 40 120.5t79 99.5t106.5 66.5t125.5 24.5q59 0 109 -21.5t86 -59.5t56.5 -89t20.5 -109q0 -70 -28.5 -132t-76 -108t-111 -73t-132.5 -27q-66 0 -119 24t-90 64.5t-55.5 97t-10.5 122.5zM223 922q-10 -96 47.5 -162t153.5 -66q51 0 97 19.5t82 53.5t57.5 80 t21.5 97q0 88 -57.5 147.5t-145.5 59.5q-47 0 -91 -18.5t-79 -49t-57.5 -72.5t-28.5 -89z" />
<glyph unicode="&#xbb;" horiz-adv-x="929" d="M78 127l16 135q25 23 56.5 53.5t63.5 63.5t62.5 62.5t55.5 52.5q-18 23 -42 52t-48.5 62t-48 62.5t-41.5 52.5l16 135q25 -25 66.5 -76t88 -106t89.5 -106.5t65 -75.5zM432 127l17 135q25 23 55.5 53.5t62 63.5t63.5 62.5t56 52.5q-18 23 -41.5 52t-48.5 61t-48.5 61.5 t-41.5 52.5l16 137q23 -25 65 -76t88 -106t89 -106.5t65 -75.5z" />
<glyph unicode="&#xbc;" horiz-adv-x="1626" d="M178 1348l10 84h211l-116 -953h-88l106 869h-123zM311 -39l764 1557h121q-193 -391 -382 -777.5t-382 -779.5h-121zM786 266q164 184 335 372.5t337 373.5l-82 -658h148l-11 -88h-147l-33 -266h-90l33 266h-490zM969 354h317l51 414z" />
<glyph unicode="&#xbd;" horiz-adv-x="1708" d="M178 1348l10 84h211l-116 -953h-88l106 869h-123zM332 -39l764 1557h121q-193 -391 -382.5 -777.5t-381.5 -779.5h-121zM938 0q109 94 210 184t179 175t125 166t47 155q0 55 -16.5 93t-42 61.5t-56 34t-57.5 10.5q-68 0 -113 -26t-71.5 -61.5t-37.5 -75.5t-11 -71 q0 -78 43 -131l-58 -49q-35 29 -51 80t-16 100q0 61 22.5 118.5t63.5 100.5t101.5 70t137.5 27q57 0 104.5 -20.5t79 -55.5t49 -82t17.5 -103q0 -84 -38 -162.5t-99 -154.5t-139 -150.5t-156 -150.5h418l-10 -82h-625z" />
<glyph unicode="&#xbe;" horiz-adv-x="2017" d="M82 520l76 66q29 -41 70.5 -63.5t97.5 -22.5q55 0 105 21.5t89 58t62.5 86t23.5 104.5q0 96 -63.5 159.5t-157.5 63.5q-57 1 -104 -32q78 104 162.5 204.5t164.5 202.5h-379l11 90h530q-78 -98 -156.5 -193.5t-156.5 -193.5q106 -20 174.5 -98t68.5 -193 q0 -76 -31.5 -143.5t-86 -117.5t-124 -79.5t-143.5 -29.5t-133 29.5t-100 80.5zM651 -39q195 393 384.5 779t381.5 780h121q-193 -393 -382 -779.5t-384 -779.5h-121zM1176 266q162 184 334.5 372.5t334.5 373.5l-80 -658h150l-10 -88h-150l-33 -266h-90l33 266h-489z M1358 354h317l51 414z" />
<glyph unicode="&#xbf;" horiz-adv-x="976" d="M25 -45q0 129 66.5 222t182.5 171q37 25 73 45.5t66.5 47t52 65.5t30.5 98l20 162h121l-25 -201q-8 -66 -34.5 -106.5t-66.5 -71.5t-89 -59.5t-103 -67.5q-90 -63 -131 -137t-41 -160q0 -111 69 -182.5t181 -71.5q119 0 199 58.5t127 162.5l98 -36q-23 -49 -59.5 -102.5 t-91 -97.5t-125 -73t-162.5 -29q-78 0 -144.5 29t-113.5 78t-73.5 114.5t-26.5 141.5zM524 993q0 41 30.5 66.5t61.5 25.5q29 0 50.5 -20.5t21.5 -54.5q0 -39 -29.5 -65.5t-62.5 -26.5q-29 0 -50.5 21.5t-21.5 53.5z" />
<glyph unicode="&#xc0;" horiz-adv-x="1320" d="M-41 0h139q51 94 124 231.5t151 290.5h561q41 -154 80 -291t67 -231h142q-23 74 -59 195.5t-76.5 267t-87 302.5t-87.5 302t-76.5 266t-58.5 197q-41 -76 -106.5 -197t-142 -266t-160.5 -302t-161 -302.5t-142.5 -267t-106.5 -195.5zM436 643q78 154 151 293t126 235 q4 8 13 28t15 36q4 -16 7.5 -35.5t5.5 -28.5q29 -96 67.5 -235t81.5 -293h-467zM571 1831h123q37 -70 75 -138.5t77 -136.5h-90z" />
<glyph unicode="&#xc1;" horiz-adv-x="1320" d="M-41 0h139q51 94 124 231.5t151 290.5h561q41 -154 80 -291t67 -231h142q-23 74 -59 195.5t-76.5 267t-87 302.5t-87.5 302t-76.5 266t-58.5 197q-41 -76 -106.5 -197t-142 -266t-160.5 -302t-161 -302.5t-142.5 -267t-106.5 -195.5zM436 643q78 154 151 293t126 235 q4 8 13 28t15 36q4 -16 7.5 -35.5t5.5 -28.5q29 -96 67.5 -235t81.5 -293h-467zM719 1556l221 275h121q-63 -70 -126 -138.5t-128 -136.5h-88z" />
<glyph unicode="&#xc2;" horiz-adv-x="1320" d="M-41 0h139q51 94 124 231.5t151 290.5h561q41 -154 80 -291t67 -231h142q-23 74 -59 195.5t-76.5 267t-87 302.5t-87.5 302t-76.5 266t-58.5 197q-41 -76 -106.5 -197t-142 -266t-160.5 -302t-161 -302.5t-142.5 -267t-106.5 -195.5zM436 643q78 154 151 293t126 235 q4 8 13 28t15 36q4 -16 7.5 -35.5t5.5 -28.5q29 -96 67.5 -235t81.5 -293h-467zM586 1556l295 373q49 -92 99 -186t101 -187h-90q-12 25 -29.5 53.5t-35 59.5t-35 60.5t-29.5 52.5q-18 -23 -42.5 -52.5t-51.5 -60.5t-51.5 -59.5t-42.5 -53.5h-88z" />
<glyph unicode="&#xc3;" horiz-adv-x="1320" d="M-41 0h139q51 94 124 231.5t151 290.5h561q41 -154 80 -291t67 -231h142q-23 74 -59 195.5t-76.5 267t-87 302.5t-87.5 302t-76.5 266t-58.5 197q-41 -76 -106.5 -197t-142 -266t-160.5 -302t-161 -302.5t-142.5 -267t-106.5 -195.5zM436 643q78 154 151 293t126 235 q4 8 13 28t15 36q4 -16 7.5 -35.5t5.5 -28.5q29 -96 67.5 -235t81.5 -293h-467zM471 1583q6 41 27.5 72t50.5 52.5t60.5 31.5t62.5 10q47 0 81.5 -18.5t63.5 -53.5t50.5 -46t50.5 -11q14 0 34.5 4t40 15.5t34.5 32t24 50.5l67 -4q-6 -41 -27.5 -71.5t-50 -52t-60.5 -32 t-62 -10.5q-47 0 -82 19.5t-64 52.5q-29 35 -50.5 46t-49.5 11q-16 0 -36 -4t-39 -15t-34.5 -31.5t-23.5 -51.5z" />
<glyph unicode="&#xc4;" horiz-adv-x="1320" d="M-41 0h139q51 94 124 231.5t151 290.5h561q41 -154 80 -291t67 -231h142q-23 74 -59 195.5t-76.5 267t-87 302.5t-87.5 302t-76.5 266t-58.5 197q-41 -76 -106.5 -197t-142 -266t-160.5 -302t-161 -302.5t-142.5 -267t-106.5 -195.5zM436 643q78 154 151 293t126 235 q4 8 13 28t15 36q4 -16 7.5 -35.5t5.5 -28.5q29 -96 67.5 -235t81.5 -293h-467zM528 1657q0 39 30 65.5t65 26.5q29 0 50 -21.5t21 -54.5q0 -41 -29.5 -66.5t-62.5 -25.5q-31 0 -52.5 20.5t-21.5 55.5zM895 1657q0 39 29.5 65.5t64.5 26.5q29 0 50.5 -21.5t21.5 -54.5 q0 -41 -30 -66.5t-62 -25.5q-31 0 -52.5 20.5t-21.5 55.5z" />
<glyph unicode="&#xc5;" horiz-adv-x="1320" d="M-41 0q41 74 106.5 195.5t142.5 267t161 302.5t160.5 302t142 266t106.5 197q23 -76 58.5 -197t76.5 -266t87.5 -302t87 -302.5t76.5 -267t59 -195.5h-142q-29 94 -67.5 231.5t-79.5 290.5h-561q-78 -154 -150.5 -291t-124.5 -231h-139zM436 643h467q-43 154 -82 293 t-67 235q-2 8 -5.5 28t-7.5 36q-6 -16 -15 -36t-13 -28q-53 -96 -126 -235t-151 -293zM647 1710q0 35 14.5 65.5t39 54t56 37t66.5 13.5q59 0 98.5 -40t39.5 -99q0 -35 -14.5 -65.5t-39 -54.5t-56.5 -37t-67 -13q-59 0 -98 40t-39 99zM719 1716q0 -31 21.5 -53.5t52.5 -22.5 q39 0 67.5 28t28.5 65q0 33 -20.5 54t-55.5 21t-64.5 -26.5t-29.5 -65.5z" />
<glyph unicode="&#xc6;" horiz-adv-x="1396" d="M-39 0q41 74 103.5 190.5t136 255t152.5 286t152 285.5t135 253.5t103 191.5h652l-17 -127h-518l-65 -534h436l-17 -131h-436l-65 -539h547l-17 -131h-680l64 522h-252q-78 -154 -150.5 -291t-124.5 -231h-139zM432 635h209l64 516q-53 -96 -124 -232.5t-149 -283.5z" />
<glyph unicode="&#xc7;" horiz-adv-x="1316" d="M115 639q0 178 70.5 331.5t188.5 266.5t272.5 177.5t320.5 64.5q55 0 111.5 -7.5t105.5 -21.5t90 -32.5t67 -41.5q-12 -16 -19 -26.5t-14.5 -21.5t-17.5 -25.5t-24 -36.5q-59 41 -144.5 61.5t-165.5 20.5q-139 0 -266 -55.5t-223 -148.5t-152.5 -216t-56.5 -258 q0 -109 37 -207t105.5 -173t168 -119t222.5 -44q59 0 115.5 9t105.5 24.5t87 32t60 32.5l49 -127q-68 -41 -173 -75.5t-240 -38.5q-4 -29 2 -45.5t17 -27.5t24.5 -19.5t25.5 -16.5q35 -29 50.5 -64.5t15.5 -72.5q0 -49 -16.5 -92t-47 -74t-72.5 -49.5t-94 -18.5 q-63 0 -112 35t-66 107q35 18 76 35q6 -37 33.5 -60.5t73.5 -23.5q59 0 97 40.5t38 100.5q0 43 -22.5 65.5t-48.5 43t-44 44t-12 68.5l4 27q-143 8 -256 63t-189.5 143.5t-116.5 203t-40 243.5z" />
<glyph unicode="&#xc8;" horiz-adv-x="1251" d="M139 0l180 1462h922l-16 -127h-783l-65 -534h700l-16 -131h-701l-65 -539h811l-16 -131h-951zM647 1831h123q37 -70 75 -138.5t77 -136.5h-91z" />
<glyph unicode="&#xc9;" horiz-adv-x="1251" d="M139 0l180 1462h922l-16 -127h-783l-65 -534h700l-16 -131h-701l-65 -539h811l-16 -131h-951zM721 1556l221 275h121q-63 -70 -126 -138.5t-128 -136.5h-88z" />
<glyph unicode="&#xca;" horiz-adv-x="1251" d="M139 0l180 1462h922l-16 -127h-783l-65 -534h700l-16 -131h-701l-65 -539h811l-16 -131h-951zM559 1556l295 373q49 -92 99.5 -186t101.5 -187h-90q-12 25 -29.5 53.5t-35 59.5t-35 60.5t-29.5 52.5q-18 -23 -43 -52.5t-51.5 -60.5t-51 -59.5t-43.5 -53.5h-88z" />
<glyph unicode="&#xcb;" horiz-adv-x="1251" d="M139 0l180 1462h922l-16 -127h-783l-65 -534h700l-16 -131h-701l-65 -539h811l-16 -131h-951zM561 1657q0 39 30 65.5t64 26.5q29 0 50.5 -21.5t21.5 -54.5q0 -41 -29.5 -66.5t-62.5 -25.5q-31 0 -52.5 20.5t-21.5 55.5zM928 1657q0 39 29.5 65.5t64.5 26.5 q29 0 50.5 -21.5t21.5 -54.5q0 -41 -30 -66.5t-63 -25.5q-31 0 -52 20.5t-21 55.5z" />
<glyph unicode="&#xcc;" horiz-adv-x="559" d="M139 0l180 1462h142l-180 -1462h-142zM203 1831h123q37 -70 74.5 -138.5t76.5 -136.5h-90z" />
<glyph unicode="&#xcd;" horiz-adv-x="559" d="M139 0l180 1462h142l-180 -1462h-142zM324 1556l221 275h121q-63 -70 -126 -138.5t-128 -136.5h-88z" />
<glyph unicode="&#xce;" horiz-adv-x="559" d="M139 0l180 1462h142l-180 -1462h-142zM156 1556l295 373q49 -92 99 -186t101 -187h-90q-12 25 -29.5 53.5t-35 59.5t-35 60.5t-29.5 52.5q-18 -23 -42.5 -52.5t-51.5 -60.5t-51.5 -59.5t-42.5 -53.5h-88z" />
<glyph unicode="&#xcf;" horiz-adv-x="559" d="M139 0l180 1462h142l-180 -1462h-142zM152 1657q0 39 29.5 65.5t64.5 26.5q29 0 50 -21.5t21 -54.5q0 -41 -29.5 -66.5t-62.5 -25.5q-31 0 -52 20.5t-21 55.5zM518 1657q0 39 30 65.5t64 26.5q29 0 50.5 -21.5t21.5 -54.5q0 -41 -29.5 -66.5t-62.5 -25.5 q-31 0 -52.5 20.5t-21.5 55.5z" />
<glyph unicode="&#xd0;" horiz-adv-x="1476" d="M104 676l13 98h133l84 688h340q199 0 337 -58t224 -151.5t124 -212t38 -237.5q0 -182 -70 -330.5t-185.5 -253t-265 -162t-311.5 -57.5h-411l84 676h-134zM311 133h256q139 0 264 46t220.5 132t150.5 209t55 277q0 113 -37.5 210t-109.5 168.5t-175.5 111.5t-234.5 40 h-241l-68 -553h324l-13 -98h-323z" />
<glyph unicode="&#xd1;" horiz-adv-x="1660" d="M137 0l189 1530q49 -76 123.5 -174.5t161.5 -209t179.5 -227t178.5 -226t159.5 -207t120.5 -169.5q4 -10 14.5 -25.5t18.5 -29.5l2 68l139 1132h140l-189 -1530q-49 72 -124.5 171.5t-164 212t-181.5 230.5t-179 230.5t-156.5 209.5t-115.5 169q-4 8 -15.5 23.5 t-19.5 29.5v-65l-142 -1143h-139zM651 1577q6 41 27.5 71.5t49.5 52t59.5 32t62.5 10.5q47 0 82 -18.5t63 -53.5q29 -35 51.5 -46t51.5 -11q14 0 34.5 4t40 15.5t35 32t23.5 50.5l67 -4q-8 -41 -28.5 -71.5t-49 -52t-60.5 -32t-62 -10.5q-47 0 -82 19.5t-64 52.5 q-29 35 -51 46t-51 11q-16 0 -35.5 -4t-39 -15t-35 -31.5t-23.5 -51.5z" />
<glyph unicode="&#xd2;" horiz-adv-x="1693" d="M115 653q0 166 69.5 316.5t186 263.5t269.5 179.5t318 66.5q143 0 264 -53.5t209.5 -145.5t138.5 -215t50 -262q0 -168 -69.5 -316.5t-187.5 -260t-270.5 -177t-318.5 -65.5q-143 0 -264 52t-209 142t-137 213t-49 262zM254 668q0 -115 40 -215.5t111.5 -175t170 -117.5 t215.5 -43q135 0 260 53t220 145.5t152.5 215t57.5 260.5q0 115 -41 216t-113 175.5t-170 117.5t-215 43q-135 0 -260 -54t-220 -146t-151.5 -215t-56.5 -260zM780 1831h123q37 -70 75 -138.5t77 -136.5h-90z" />
<glyph unicode="&#xd3;" horiz-adv-x="1693" d="M115 653q0 166 69.5 316.5t186 263.5t269.5 179.5t318 66.5q143 0 264 -53.5t209.5 -145.5t138.5 -215t50 -262q0 -168 -69.5 -316.5t-187.5 -260t-270.5 -177t-318.5 -65.5q-143 0 -264 52t-209 142t-137 213t-49 262zM254 668q0 -115 40 -215.5t111.5 -175t170 -117.5 t215.5 -43q135 0 260 53t220 145.5t152.5 215t57.5 260.5q0 115 -41 216t-113 175.5t-170 117.5t-215 43q-135 0 -260 -54t-220 -146t-151.5 -215t-56.5 -260zM879 1556l221 275h121q-63 -70 -126 -138.5t-128 -136.5h-88z" />
<glyph unicode="&#xd4;" horiz-adv-x="1693" d="M115 653q0 166 69.5 316.5t186 263.5t269.5 179.5t318 66.5q143 0 264 -53.5t209.5 -145.5t138.5 -215t50 -262q0 -168 -69.5 -316.5t-187.5 -260t-270.5 -177t-318.5 -65.5q-143 0 -264 52t-209 142t-137 213t-49 262zM254 668q0 -115 40 -215.5t111.5 -175t170 -117.5 t215.5 -43q135 0 260 53t220 145.5t152.5 215t57.5 260.5q0 115 -41 216t-113 175.5t-170 117.5t-215 43q-135 0 -260 -54t-220 -146t-151.5 -215t-56.5 -260zM715 1556l295 373q49 -92 99 -186t101 -187h-90q-12 25 -29.5 53.5t-35 59.5t-34.5 60.5t-30 52.5 q-18 -23 -42.5 -52.5t-51.5 -60.5t-51.5 -59.5t-42.5 -53.5h-88z" />
<glyph unicode="&#xd5;" horiz-adv-x="1693" d="M115 653q0 166 69.5 316.5t186 263.5t269.5 179.5t318 66.5q143 0 264 -53.5t209.5 -145.5t138.5 -215t50 -262q0 -168 -69.5 -316.5t-187.5 -260t-270.5 -177t-318.5 -65.5q-143 0 -264 52t-209 142t-137 213t-49 262zM254 668q0 -115 40 -215.5t111.5 -175t170 -117.5 t215.5 -43q135 0 260 53t220 145.5t152.5 215t57.5 260.5q0 115 -41 216t-113 175.5t-170 117.5t-215 43q-135 0 -260 -54t-220 -146t-151.5 -215t-56.5 -260zM651 1647q6 41 27.5 71.5t50.5 52t60.5 31.5t62.5 10q47 0 81 -18t62 -53q29 -35 51.5 -46.5t51.5 -11.5 q14 0 34.5 4.5t40 15.5t35 31.5t23.5 51.5l67 -4q-8 -41 -28.5 -72t-49 -52.5t-60.5 -31.5t-62 -10q-47 0 -82 19.5t-64 52.5q-29 35 -50 46t-50 11q-16 0 -35.5 -4t-39 -15.5t-36 -32t-24.5 -51.5z" />
<glyph unicode="&#xd6;" horiz-adv-x="1691" d="M119 729q18 154 94 290t189.5 238.5t257 162t296.5 59.5q143 0 264 -53.5t209.5 -145.5t138.5 -215t50 -262q0 -168 -69.5 -316.5t-187.5 -260t-270.5 -177t-318.5 -65.5q-154 0 -283 58t-218 159.5t-129.5 237.5t-22.5 290zM258 729q-16 -127 17.5 -238.5t106.5 -194.5 t177.5 -131t228.5 -48q135 0 260.5 53t220.5 145.5t152.5 215t57.5 260.5q0 115 -41 216t-113 175.5t-170 117.5t-215 43q-127 0 -242.5 -48t-209 -132t-155 -195.5t-75.5 -238.5zM709 1657q0 39 29.5 65.5t64.5 26.5q29 0 50 -21.5t21 -54.5q0 -41 -29.5 -66.5t-62.5 -25.5 q-31 0 -52 20.5t-21 55.5zM1075 1657q0 39 30 65.5t64 26.5q29 0 50.5 -21.5t21.5 -54.5q0 -41 -29.5 -66.5t-62.5 -25.5q-31 0 -52.5 20.5t-21.5 55.5z" />
<glyph unicode="&#xd7;" horiz-adv-x="888" d="M74 100l241 217l-190 215l115 103l190 -217q59 55 120.5 108.5t121.5 106.5q23 -23 43 -49.5t43 -51.5q-59 -53 -119.5 -106t-120.5 -107q49 -53 95 -108t96 -109l-117 -102l-191 215q-59 -53 -119.5 -106.5t-119.5 -106.5z" />
<glyph unicode="&#xd8;" horiz-adv-x="1693" d="M115 653q0 166 69.5 316.5t186 263.5t269.5 179.5t318 66.5q123 0 226.5 -38t189.5 -104q41 41 78 79t66 69l59 -62l-137 -143q86 -90 133 -215t47 -262q0 -168 -69.5 -316.5t-187.5 -260t-270.5 -177t-318.5 -65.5q-131 0 -242.5 42t-199.5 115l-154 -159l-59 61 l153 160q-76 86 -116.5 203.5t-40.5 246.5zM254 666q0 -102 31.5 -195.5t87.5 -163.5l901 926q-68 53 -151 81.5t-181 28.5q-135 0 -260 -54t-220 -146t-151.5 -216t-56.5 -261zM434 246q70 -61 160 -95t197 -34q135 0 260 53t220 145.5t152.5 215t57.5 260.5q0 111 -38 212 t-106 173z" />
<glyph unicode="&#xd9;" horiz-adv-x="1421" d="M182 498l119 964h139l-116 -958q-10 -88 9 -160t63 -122t110.5 -77.5t148.5 -27.5q80 0 154 27.5t131 77.5t96 122t49 160l117 958h139l-118 -964q-14 -121 -66.5 -216.5t-131.5 -161t-178 -101t-208 -35.5q-111 0 -202 35.5t-152.5 101t-89 161t-13.5 216.5zM653 1831 h123q39 -70 76 -138.5t78 -136.5h-90z" />
<glyph unicode="&#xda;" horiz-adv-x="1421" d="M182 498l119 964h139l-116 -958q-10 -88 9 -160t63 -122t110.5 -77.5t148.5 -27.5q80 0 154 27.5t131 77.5t96 122t49 160l117 958h139l-118 -964q-14 -121 -66.5 -216.5t-131.5 -161t-178 -101t-208 -35.5q-111 0 -202 35.5t-152.5 101t-89 161t-13.5 216.5zM760 1556 l219 275h121q-61 -70 -125 -138.5t-127 -136.5h-88z" />
<glyph unicode="&#xdb;" horiz-adv-x="1421" d="M182 498l119 964h139l-116 -958q-10 -88 9 -160t63 -122t110.5 -77.5t148.5 -27.5q80 0 154 27.5t131 77.5t96 122t49 160l117 958h139l-118 -964q-14 -121 -66.5 -216.5t-131.5 -161t-178 -101t-208 -35.5q-111 0 -202 35.5t-152.5 101t-89 161t-13.5 216.5zM602 1583 l295 373q49 -92 99.5 -186.5t101.5 -186.5h-90q-12 25 -29.5 53.5t-35 59t-35 60.5t-29.5 52q-18 -23 -43 -52.5t-51.5 -60t-51 -59t-43.5 -53.5h-88z" />
<glyph unicode="&#xdc;" horiz-adv-x="1421" d="M182 498l119 964h139l-116 -958q-10 -88 9 -160t63 -122t110.5 -77.5t148.5 -27.5q80 0 154 27.5t131 77.5t96 122t49 160l117 958h139l-118 -964q-14 -121 -66.5 -216.5t-131.5 -161t-178 -101t-208 -35.5q-111 0 -202 35.5t-152.5 101t-89 161t-13.5 216.5zM602 1657 q0 39 28.5 65.5t63.5 26.5q29 0 50.5 -21.5t21.5 -54.5q0 -41 -28.5 -66.5t-63.5 -25.5q-29 0 -50.5 20.5t-21.5 55.5zM969 1657q0 39 28.5 65.5t63.5 26.5q29 0 50.5 -21.5t21.5 -54.5q0 -41 -29 -66.5t-64 -25.5q-29 0 -50 20.5t-21 55.5z" />
<glyph unicode="&#xdd;" horiz-adv-x="1300" d="M145 1462h158q29 -61 71 -155.5t89 -200t94 -214t86 -198.5l16 -61l33 61q61 90 134 198.5t144.5 214t135 200t108.5 155.5h160l-659 -952l-64 -510h-141l63 510q-23 45 -56.5 120t-74.5 166t-84 190t-84 190.5t-74.5 166t-54.5 119.5zM713 1556l219 275h121 q-61 -70 -125 -138.5t-127 -136.5h-88z" />
<glyph unicode="&#xde;" horiz-adv-x="1105" d="M139 0l178 1446h140l-35 -285h215q84 0 162 -22.5t137 -69.5t94 -117.5t35 -167.5q0 -90 -30.5 -179t-95.5 -159.5t-165 -115.5t-242 -45h-219l-34 -285h-140zM330 418h217q109 0 181.5 37t115.5 90t61.5 112.5t18.5 104.5q0 51 -18.5 99t-55.5 86t-93.5 60.5 t-131.5 22.5h-219z" />
<glyph unicode="&#xdf;" horiz-adv-x="1128" d="M80 717l14 117h133l6 43q14 113 53.5 201.5t95.5 150t128 94.5t154 35q86 0 147 -23.5t99 -61.5t56.5 -87t18.5 -103q0 -96 -48 -170.5t-136 -107.5q45 -12 88 -43t74.5 -76t51 -103.5t19.5 -123.5q0 -96 -42 -182.5t-110.5 -152t-158.5 -104t-188 -38.5q-103 0 -185 47 l62 104q59 -35 137 -35q72 0 137.5 29t116.5 77t80.5 111.5t29.5 135.5q0 59 -21.5 111t-59 91t-90 60.5t-113.5 21.5h-2l14 117q92 0 157.5 57.5t65.5 151.5q0 72 -49 126t-151 54q-141 0 -217 -100.5t-97 -268.5l-106 -872h-119l88 717h-133z" />
<glyph unicode="&#xe0;" d="M55 362q0 96 40 183.5t107.5 152t154.5 102.5t182 38q61 0 112 -16.5t90 -44t63.5 -61.5t35.5 -67l28 170h105l-101 -819h-112l10 84q4 23 6 43t6 39q-18 -35 -51 -66.5t-78 -58.5t-100 -42t-119 -15q-86 0 -155.5 29.5t-118.5 80.5t-77 120.5t-28 147.5zM168 379 q0 -61 20.5 -112.5t58.5 -90.5t90 -60.5t116 -21.5q74 0 139 28t114.5 75t78 111.5t28.5 135.5q0 59 -20.5 111.5t-57.5 90.5t-89 59.5t-116 21.5q-74 0 -139 -26.5t-114.5 -73.5t-79 -110.5t-29.5 -137.5zM344 1264h123q37 -70 75 -138.5t76 -136.5h-90z" />
<glyph unicode="&#xe1;" d="M55 362q0 96 40 183.5t107.5 152t154.5 102.5t182 38q61 0 112 -16.5t90 -44t63.5 -61.5t35.5 -67l28 170h105l-101 -819h-112l10 84q4 23 6 43t6 39q-18 -35 -51 -66.5t-78 -58.5t-100 -42t-119 -15q-86 0 -155.5 29.5t-118.5 80.5t-77 120.5t-28 147.5zM168 379 q0 -61 20.5 -112.5t58.5 -90.5t90 -60.5t116 -21.5q74 0 139 28t114.5 75t78 111.5t28.5 135.5q0 59 -20.5 111.5t-57.5 90.5t-89 59.5t-116 21.5q-74 0 -139 -26.5t-114.5 -73.5t-79 -110.5t-29.5 -137.5zM520 989l221 275h121q-63 -70 -125.5 -138.5t-128.5 -136.5h-88z " />
<glyph unicode="&#xe2;" d="M55 362q0 96 40 183.5t107.5 152t154.5 102.5t182 38q61 0 112 -16.5t90 -44t63.5 -61.5t35.5 -67l28 170h105l-101 -819h-112l10 84q4 23 6 43t6 39q-18 -35 -51 -66.5t-78 -58.5t-100 -42t-119 -15q-86 0 -155.5 29.5t-118.5 80.5t-77 120.5t-28 147.5zM168 379 q0 -61 20.5 -112.5t58.5 -90.5t90 -60.5t116 -21.5q74 0 139 28t114.5 75t78 111.5t28.5 135.5q0 59 -20.5 111.5t-57.5 90.5t-89 59.5t-116 21.5q-74 0 -139 -26.5t-114.5 -73.5t-79 -110.5t-29.5 -137.5zM350 987l295 373q49 -92 99.5 -186.5t101.5 -186.5h-90 q-12 25 -29.5 53.5t-35 59t-35 60.5t-29.5 52q-18 -23 -43 -52.5t-51.5 -60t-51 -59t-43.5 -53.5h-88z" />
<glyph unicode="&#xe3;" d="M55 362q0 96 40 183.5t107.5 152t154.5 102.5t182 38q61 0 112 -16.5t90 -44t63.5 -61.5t35.5 -67l28 170h105l-101 -819h-112l10 84q4 23 6 43t6 39q-18 -35 -51 -66.5t-78 -58.5t-100 -42t-119 -15q-86 0 -155.5 29.5t-118.5 80.5t-77 120.5t-28 147.5zM168 379 q0 -61 20.5 -112.5t58.5 -90.5t90 -60.5t116 -21.5q74 0 139 28t114.5 75t78 111.5t28.5 135.5q0 59 -20.5 111.5t-57.5 90.5t-89 59.5t-116 21.5q-74 0 -139 -26.5t-114.5 -73.5t-79 -110.5t-29.5 -137.5zM287 965q6 41 27.5 71.5t50 52t60.5 31.5t62 10q47 0 81 -18 t63 -53t51.5 -46.5t50.5 -11.5q14 0 34.5 4.5t40 15.5t35 31.5t23.5 51.5l68 -4q-8 -41 -28.5 -72t-49.5 -52.5t-60.5 -31.5t-62.5 -10q-47 0 -81.5 19.5t-63.5 52.5q-29 35 -50.5 46t-50.5 11q-16 0 -35.5 -4t-39 -15.5t-35 -32t-23.5 -50.5z" />
<glyph unicode="&#xe4;" d="M55 362q0 96 40 183.5t107.5 152t154.5 102.5t182 38q61 0 112 -16.5t90 -44t63.5 -61.5t35.5 -67l28 170h105l-101 -819h-112l10 84q4 23 6 43t6 39q-18 -35 -51 -66.5t-78 -58.5t-100 -42t-119 -15q-86 0 -155.5 29.5t-118.5 80.5t-77 120.5t-28 147.5zM168 379 q0 -61 20.5 -112.5t58.5 -90.5t90 -60.5t116 -21.5q74 0 139 28t114.5 75t78 111.5t28.5 135.5q0 59 -20.5 111.5t-57.5 90.5t-89 59.5t-116 21.5q-74 0 -139 -26.5t-114.5 -73.5t-79 -110.5t-29.5 -137.5zM340 1051q0 39 29.5 65.5t64.5 26.5q29 0 50.5 -21.5t21.5 -54.5 q0 -41 -31 -66.5t-63 -25.5q-29 0 -50.5 20.5t-21.5 55.5zM707 1051q0 39 29.5 65.5t64.5 26.5q29 0 50 -21.5t21 -54.5q0 -41 -30.5 -66.5t-63.5 -25.5q-29 0 -50 20.5t-21 55.5z" />
<glyph unicode="&#xe5;" d="M55 362q0 96 40 183.5t107.5 152t154.5 102.5t182 38q61 0 112 -16.5t90 -44t63.5 -61.5t35.5 -67l28 170h105l-101 -819h-112l10 84q4 23 6 43t6 39q-18 -35 -51 -66.5t-78 -58.5t-100 -42t-119 -15q-86 0 -155.5 29.5t-118.5 80.5t-77 120.5t-28 147.5zM168 379 q0 -61 20.5 -112.5t58.5 -90.5t90 -60.5t116 -21.5q74 0 139 28t114.5 75t78 111.5t28.5 135.5q0 59 -20.5 111.5t-57.5 90.5t-89 59.5t-116 21.5q-74 0 -139 -26.5t-114.5 -73.5t-79 -110.5t-29.5 -137.5zM422 1032q0 35 14.5 65.5t39 54.5t56 37t66.5 13q59 0 98 -40 t39 -99q0 -70 -52 -120t-122 -50q-59 0 -99 40t-40 99zM494 1038q0 -31 22.5 -53t52.5 -22q39 0 67 27.5t28 64.5q0 33 -20.5 54t-53.5 21q-37 0 -66.5 -26.5t-29.5 -65.5z" />
<glyph unicode="&#xe6;" horiz-adv-x="1357" d="M27 201q0 63 27.5 109t70.5 77t95 45t102 14h172q29 123 110 220q-45 59 -182 59q-90 0 -150.5 -18.5t-107.5 -47.5l-39 91q63 41 146 64.5t184 23.5q178 0 241 -90q59 43 130 67.5t145 24.5q135 0 224 -81t120 -210q-72 -27 -161 -60.5t-183 -69.5t-186.5 -72 t-172.5 -66q6 -18 13.5 -35t17.5 -33l39 -14l-8 -21q78 -84 205 -84q66 0 127 22.5t108 61.5l74 -80q-66 -53 -150 -83.5t-170 -30.5q-80 0 -147.5 25.5t-118.5 72.5q-57 -49 -136 -73.5t-169 -24.5q-72 0 -122 17t-84 48t-49 70t-15 82zM135 219q0 -37 16.5 -60.5t43 -38 t60.5 -20.5t69 -6q141 0 217 66q-55 82 -56 196h-104q-72 0 -120 -12t-75.5 -31.5t-39 -44t-11.5 -49.5zM600 385q0 -20 2 -29q66 27 140.5 55.5t150.5 58.5t150 57.5t135 50.5q-25 70 -84.5 109.5t-137.5 39.5q-72 0 -136 -27.5t-113.5 -76t-78 -109.5t-28.5 -129z" />
<glyph unicode="&#xe7;" horiz-adv-x="843" d="M55 367q0 96 40 182t107.5 150.5t155.5 101.5t185 37q78 0 144.5 -25t117.5 -70q-20 -23 -41 -42t-41 -42q-78 68 -193 68q-74 0 -140 -27.5t-115.5 -74.5t-78 -110.5t-28.5 -137.5q0 -59 20.5 -111.5t58.5 -90.5t90 -59.5t116 -21.5q59 0 111.5 17.5t97.5 50.5l59 -84 q-61 -45 -133 -69.5t-148 -24.5q-4 -29 3.5 -45.5t17.5 -27.5t23.5 -19.5t25.5 -16.5q35 -29 50 -64.5t15 -72.5q0 -49 -16 -92t-47 -74t-73 -49.5t-93 -18.5q-63 0 -112.5 35t-65.5 107q18 10 36.5 18t39.5 17q6 -37 33.5 -60.5t72.5 -23.5q59 0 97 40.5t38 100.5 q0 43 -21.5 65.5t-47 43t-44 44t-12.5 68.5l5 31q-68 12 -125.5 46t-98.5 84t-63.5 112.5t-22.5 134.5z" />
<glyph unicode="&#xe8;" horiz-adv-x="929" d="M55 367q0 96 40 182t107.5 150.5t154.5 102.5t182 38q135 0 225 -81t121 -210q-72 -27 -161 -60.5t-183.5 -69.5t-186.5 -72t-172 -66q27 -84 97.5 -135.5t169.5 -51.5q66 0 127 22.5t108 61.5l74 -80q-66 -53 -150 -83.5t-170 -30.5q-84 0 -153.5 29.5t-120.5 81.5 t-80 122t-29 150zM170 356q68 27 142.5 55.5t150.5 58.5t150 57.5t135 50.5q-27 70 -85.5 109.5t-136.5 39.5q-72 0 -136 -27.5t-113.5 -76t-78 -109.5t-28.5 -129v-29zM295 1264h123q37 -70 74.5 -138.5t76.5 -136.5h-90z" />
<glyph unicode="&#xe9;" horiz-adv-x="929" d="M55 367q0 96 40 182t107.5 150.5t154.5 102.5t182 38q135 0 225 -81t121 -210q-72 -27 -161 -60.5t-183.5 -69.5t-186.5 -72t-172 -66q27 -84 97.5 -135.5t169.5 -51.5q66 0 127 22.5t108 61.5l74 -80q-66 -53 -150 -83.5t-170 -30.5q-84 0 -153.5 29.5t-120.5 81.5 t-80 122t-29 150zM170 356q68 27 142.5 55.5t150.5 58.5t150 57.5t135 50.5q-27 70 -85.5 109.5t-136.5 39.5q-72 0 -136 -27.5t-113.5 -76t-78 -109.5t-28.5 -129v-29zM489 989l222 275h120q-63 -70 -125.5 -138.5t-127.5 -136.5h-89z" />
<glyph unicode="&#xea;" horiz-adv-x="929" d="M55 367q0 96 40 182t107.5 150.5t154.5 102.5t182 38q135 0 225 -81t121 -210q-72 -27 -161 -60.5t-183.5 -69.5t-186.5 -72t-172 -66q27 -84 97.5 -135.5t169.5 -51.5q66 0 127 22.5t108 61.5l74 -80q-66 -53 -150 -83.5t-170 -30.5q-84 0 -153.5 29.5t-120.5 81.5 t-80 122t-29 150zM170 356q68 27 142.5 55.5t150.5 58.5t150 57.5t135 50.5q-27 70 -85.5 109.5t-136.5 39.5q-72 0 -136 -27.5t-113.5 -76t-78 -109.5t-28.5 -129v-29zM283 989l295 373q49 -92 99 -186.5t101 -186.5h-90q-12 25 -29.5 53.5t-35 59.5t-35 60.5t-29.5 51.5 q-18 -23 -42.5 -52t-51.5 -60t-51.5 -59.5t-42.5 -53.5h-88z" />
<glyph unicode="&#xeb;" horiz-adv-x="929" d="M55 367q0 96 40 182t107.5 150.5t154.5 102.5t182 38q135 0 225 -81t121 -210q-72 -27 -161 -60.5t-183.5 -69.5t-186.5 -72t-172 -66q27 -84 97.5 -135.5t169.5 -51.5q66 0 127 22.5t108 61.5l74 -80q-66 -53 -150 -83.5t-170 -30.5q-84 0 -153.5 29.5t-120.5 81.5 t-80 122t-29 150zM170 356q68 27 142.5 55.5t150.5 58.5t150 57.5t135 50.5q-27 70 -85.5 109.5t-136.5 39.5q-72 0 -136 -27.5t-113.5 -76t-78 -109.5t-28.5 -129v-29zM279 1051q0 39 29.5 65.5t64.5 26.5q29 0 50 -21.5t21 -54.5q0 -41 -30.5 -66.5t-63.5 -25.5 q-29 0 -50 20.5t-21 55.5zM645 1051q0 39 30 65.5t64 26.5q29 0 50.5 -21.5t21.5 -54.5q0 -41 -30.5 -66.5t-63.5 -25.5q-29 0 -50.5 20.5t-21.5 55.5z" />
<glyph unicode="&#xec;" horiz-adv-x="387" d="M35 1264h123q37 -70 74.5 -138.5t78.5 -136.5h-90zM68 0l100 819h113l-101 -819h-112z" />
<glyph unicode="&#xed;" horiz-adv-x="387" d="M68 0l100 819h113l-101 -819h-112zM190 989l222 275h120q-63 -70 -125.5 -138.5t-127.5 -136.5h-89z" />
<glyph unicode="&#xee;" horiz-adv-x="387" d="M0 989l293 373q51 -92 100 -186.5t103 -186.5h-90q-12 25 -30 53.5t-35 59.5t-34.5 60.5t-30.5 51.5q-18 -23 -42.5 -52t-51 -60t-51.5 -59.5t-43 -53.5h-88zM68 0l100 819h113l-101 -819h-112z" />
<glyph unicode="&#xef;" horiz-adv-x="387" d="M-8 1051q0 39 29.5 65.5t64.5 26.5q29 0 50.5 -21.5t21.5 -54.5q0 -41 -31 -66.5t-64 -25.5q-29 0 -50 20.5t-21 55.5zM68 0l100 819h113l-101 -819h-112zM358 1051q0 39 30 65.5t65 26.5q29 0 50 -21.5t21 -54.5q0 -41 -30.5 -66.5t-63.5 -25.5q-29 0 -50.5 20.5 t-21.5 55.5z" />
<glyph unicode="&#xf0;" horiz-adv-x="1021" d="M55 365q0 98 40 184t106.5 150.5t154.5 102.5t187 38q68 0 127 -20.5t106 -55.5q-20 104 -71.5 231t-145.5 262l-153 -145l-58 59q41 41 83 80t83 78q-41 53 -86 102.5t-94 92.5l74 63q47 -41 92 -87t88 -99q37 35 73.5 69.5t71.5 71.5l58 -57l-156 -152 q61 -86 114.5 -189.5t93.5 -212t62.5 -219t22.5 -214.5q0 -33 -2 -52.5t-4 -31t-4.5 -16.5t-2.5 -7q-14 -86 -57 -159.5t-107.5 -129t-145.5 -87t-169 -31.5q-82 0 -151.5 28.5t-120.5 78.5t-80 120t-29 154zM168 377q0 -59 21.5 -111.5t58.5 -90.5t88 -59.5t113 -21.5 q72 0 136 28t113.5 75t79 110.5t29.5 134.5q0 59 -21.5 111.5t-58.5 90.5t-88 60.5t-113 22.5q-72 0 -136 -27.5t-113.5 -76t-79 -111.5t-29.5 -135z" />
<glyph unicode="&#xf1;" horiz-adv-x="983" d="M68 0l100 819h96l-16 -211q59 102 154.5 166t218.5 64q121 0 183 -68t52 -178l-72 -592h-112l67 553q6 70 -33.5 119t-130.5 53q-66 0 -124 -21.5t-104 -60.5t-75.5 -92t-38.5 -117l-53 -434h-112zM262 981q6 41 27.5 71.5t50.5 52t60.5 32t62.5 10.5q47 0 81 -18.5 t62 -53.5q29 -35 51.5 -46t51.5 -11q14 0 34.5 4t40 15.5t35 32t23.5 50.5l67 -4q-8 -41 -28.5 -71.5t-49 -52t-60.5 -32t-62 -10.5q-47 0 -82 19.5t-64 52.5q-29 35 -50 46t-50 11q-16 0 -35.5 -4t-39 -15t-35 -31.5t-23.5 -51.5z" />
<glyph unicode="&#xf2;" horiz-adv-x="1015" d="M55 365q0 98 40 184t106.5 150.5t154.5 102.5t187 38q84 0 153.5 -30t119.5 -82t78 -122.5t28 -150.5q0 -96 -39 -182.5t-105.5 -151t-154.5 -101t-187 -36.5q-82 0 -151.5 28.5t-120.5 78.5t-80 120t-29 154zM168 377q0 -59 21.5 -111.5t58.5 -90.5t88 -59.5t113 -21.5 q72 0 136 28t113.5 75t79 110.5t29.5 134.5q0 59 -21.5 111.5t-58.5 90.5t-88 60.5t-113 22.5q-72 0 -136 -27.5t-113.5 -76t-79 -111.5t-29.5 -135zM307 1264h123q37 -70 75 -138.5t77 -136.5h-90z" />
<glyph unicode="&#xf3;" horiz-adv-x="1015" d="M55 365q0 98 40 184t106.5 150.5t154.5 102.5t187 38q84 0 153.5 -30t119.5 -82t78 -122.5t28 -150.5q0 -96 -39 -182.5t-105.5 -151t-154.5 -101t-187 -36.5q-82 0 -151.5 28.5t-120.5 78.5t-80 120t-29 154zM168 377q0 -59 21.5 -111.5t58.5 -90.5t88 -59.5t113 -21.5 q72 0 136 28t113.5 75t79 110.5t29.5 134.5q0 59 -21.5 111.5t-58.5 90.5t-88 60.5t-113 22.5q-72 0 -136 -27.5t-113.5 -76t-79 -111.5t-29.5 -135zM557 989l221 275h121q-63 -70 -125.5 -138.5t-128.5 -136.5h-88z" />
<glyph unicode="&#xf4;" horiz-adv-x="1015" d="M55 365q0 98 40 184t106.5 150.5t154.5 102.5t187 38q84 0 153.5 -30t119.5 -82t78 -122.5t28 -150.5q0 -96 -39 -182.5t-105.5 -151t-154.5 -101t-187 -36.5q-82 0 -151.5 28.5t-120.5 78.5t-80 120t-29 154zM168 377q0 -59 21.5 -111.5t58.5 -90.5t88 -59.5t113 -21.5 q72 0 136 28t113.5 75t79 110.5t29.5 134.5q0 59 -21.5 111.5t-58.5 90.5t-88 60.5t-113 22.5q-72 0 -136 -27.5t-113.5 -76t-79 -111.5t-29.5 -135zM311 989l295 373q49 -92 99.5 -186.5t101.5 -186.5h-90q-12 25 -29.5 53.5t-35 59.5t-35 60.5t-29.5 51.5q-18 -23 -43 -52 t-51.5 -60t-51 -59.5t-43.5 -53.5h-88z" />
<glyph unicode="&#xf5;" horiz-adv-x="1015" d="M55 365q0 98 40 184t106.5 150.5t154.5 102.5t187 38q84 0 153.5 -30t119.5 -82t78 -122.5t28 -150.5q0 -96 -39 -182.5t-105.5 -151t-154.5 -101t-187 -36.5q-82 0 -151.5 28.5t-120.5 78.5t-80 120t-29 154zM168 377q0 -59 21.5 -111.5t58.5 -90.5t88 -59.5t113 -21.5 q72 0 136 28t113.5 75t79 110.5t29.5 134.5q0 59 -21.5 111.5t-58.5 90.5t-88 60.5t-113 22.5q-72 0 -136 -27.5t-113.5 -76t-79 -111.5t-29.5 -135zM254 965q6 41 27.5 71.5t50 52t60.5 31.5t63 10q47 0 80.5 -18t62.5 -53t51.5 -46.5t50.5 -11.5q14 0 35 4.5t40.5 15.5 t34.5 31.5t24 51.5l67 -4q-8 -41 -28.5 -72t-49 -52.5t-60.5 -31.5t-63 -10q-47 0 -81.5 19.5t-63.5 52.5q-29 35 -50.5 46t-49.5 11q-16 0 -36 -4t-39.5 -15.5t-34.5 -32t-23 -50.5z" />
<glyph unicode="&#xf6;" horiz-adv-x="1013" d="M57 410q10 88 53.5 166.5t109 137t148.5 92.5t173 34q84 0 153.5 -30t119.5 -82t78 -122.5t28 -150.5q0 -96 -39 -182.5t-105.5 -151t-155 -101t-186.5 -36.5q-90 0 -163.5 31.5t-125 89t-76 135.5t-12.5 170zM170 410q-8 -66 9.5 -123.5t54 -100.5t92 -67.5t120.5 -24.5 q72 0 136.5 28t113.5 75t79 110.5t30 134.5q0 59 -21.5 111.5t-58.5 90.5t-88 60.5t-113 22.5q-66 0 -127 -24.5t-108 -67.5t-79 -101t-40 -124zM319 1051q0 39 30 65.5t65 26.5q29 0 50 -21.5t21 -54.5q0 -41 -29.5 -66.5t-64.5 -25.5q-29 0 -50.5 20.5t-21.5 55.5z M686 1051q0 39 29.5 65.5t64.5 26.5q29 0 50.5 -21.5t21.5 -54.5q0 -41 -30.5 -66.5t-63.5 -25.5q-29 0 -50.5 20.5t-21.5 55.5z" />
<glyph unicode="&#xf7;" horiz-adv-x="1028" d="M125 428l14 117h744l-15 -117h-743zM391 197q0 39 31 65.5t65 26.5q29 0 50.5 -21.5t21.5 -54.5q0 -41 -29.5 -66.5t-62.5 -25.5q-29 0 -52.5 20.5t-23.5 55.5zM461 762q0 39 30.5 65.5t65.5 26.5q29 0 50.5 -21.5t21.5 -54.5q0 -41 -30 -66.5t-64 -25.5 q-29 0 -51.5 20.5t-22.5 55.5z" />
<glyph unicode="&#xf8;" horiz-adv-x="1015" d="M37 25q16 16 40.5 41.5t53.5 54.5q-35 47 -55.5 109t-20.5 132q0 98 40 185.5t106.5 152t154.5 102.5t187 38q66 0 123 -18.5t104 -51.5l78 80l55 -51l-78 -80q47 -49 72 -119t25 -147q0 -96 -39 -181.5t-105.5 -150t-154.5 -101t-187 -36.5q-150 0 -252 84 q-29 -31 -54.5 -55.5t-41.5 -43.5zM168 377q0 -100 51 -168q53 53 112.5 113.5t121 123t120 123t111.5 113.5q-68 45 -158 45q-72 0 -136 -27.5t-113.5 -76t-79 -111.5t-29.5 -135zM268 154q35 -29 81 -44.5t100 -15.5q72 0 136 28t113.5 75t79 109.5t29.5 133.5 q0 115 -68 193q-53 -53 -113.5 -114.5t-122 -124t-122 -124t-113.5 -116.5z" />
<glyph unicode="&#xf9;" horiz-adv-x="983" d="M88 227l72 592h112l-67 -553q-4 -70 35 -119t129 -53q63 0 121.5 21.5t104.5 59.5t76.5 91t39.5 117l53 436h113l-103 -829h-94l16 221q-55 -102 -151 -165.5t-221 -63.5q-121 0 -183.5 67.5t-52.5 177.5zM373 1264h123q37 -70 74.5 -138.5t76.5 -136.5h-90z" />
<glyph unicode="&#xfa;" horiz-adv-x="983" d="M88 227l72 592h112l-67 -553q-4 -70 35 -119t129 -53q63 0 121.5 21.5t104.5 59.5t76.5 91t39.5 117l53 436h113l-103 -829h-94l16 221q-55 -102 -151 -165.5t-221 -63.5q-121 0 -183.5 67.5t-52.5 177.5zM502 989l221 275h121q-63 -70 -126 -138.5t-128 -136.5h-88z" />
<glyph unicode="&#xfb;" horiz-adv-x="980" d="M182 227l72 592h113l-68 -553q-4 -70 35 -119t129 -53q63 0 121.5 21.5t104.5 59.5t77 91t39 117l53 436h113l-103 -829h-94l17 221q-55 -102 -151.5 -165.5t-221.5 -63.5q-121 0 -183.5 67.5t-52.5 177.5zM422 989l295 373q49 -92 99 -186.5t102 -186.5h-91 q-12 25 -29.5 53.5t-35 59.5t-34.5 60.5t-30 51.5q-18 -23 -42.5 -52t-51 -60t-51.5 -59.5t-43 -53.5h-88z" />
<glyph unicode="&#xfc;" horiz-adv-x="983" d="M88 227l72 592h112l-67 -553q-4 -70 35 -119t129 -53q63 0 121.5 21.5t104.5 59.5t76.5 91t39.5 117l53 436h113l-103 -829h-94l16 221q-55 -102 -151 -165.5t-221 -63.5q-121 0 -183.5 67.5t-52.5 177.5zM315 1051q0 39 30 65.5t65 26.5q29 0 50 -21.5t21 -54.5 q0 -41 -29.5 -66.5t-62.5 -25.5q-31 0 -52.5 20.5t-21.5 55.5zM682 1051q0 39 29.5 65.5t64.5 26.5q29 0 50.5 -21.5t21.5 -54.5q0 -41 -30 -66.5t-62 -25.5q-29 0 -51.5 20.5t-22.5 55.5z" />
<glyph unicode="&#xfd;" horiz-adv-x="909" d="M55 819h121q47 -123 80 -221t58.5 -179t45 -150.5t41.5 -135.5q37 66 73 135.5t81 150.5t102.5 179t135.5 221h120l-708 -1212h-119q33 55 60.5 103t55 97.5l57.5 103.5t69 122q-72 188 -136.5 392t-136.5 394zM477 989l221 275h121q-63 -70 -125.5 -138.5t-128.5 -136.5 h-88z" />
<glyph unicode="&#xfe;" d="M18 -393l242 1962h113l-115 -922q47 76 141.5 133.5t212.5 57.5q84 0 153 -28t118 -77t75.5 -118.5t26.5 -153.5q0 -100 -38 -187.5t-103.5 -152t-152.5 -101t-187 -36.5q-115 0 -197 53t-108 131q-4 -20 -4 -39.5t-5 -42.5l-59 -479h-113zM227 379q0 -61 20.5 -112.5 t58.5 -90.5t90.5 -60.5t113.5 -21.5q74 0 138.5 28t112.5 76t74.5 111t26.5 137q0 121 -73.5 201t-200.5 80q-74 0 -139.5 -26.5t-114.5 -73.5t-78 -110.5t-29 -137.5z" />
<glyph unicode="&#xff;" horiz-adv-x="909" d="M55 819h121q47 -123 80 -221t58.5 -179t45 -150.5t41.5 -135.5q37 66 73 135.5t81 150.5t102.5 179t135.5 221h120l-708 -1212h-119q33 55 60.5 103t55 97.5l57.5 103.5t69 122q-72 188 -136.5 392t-136.5 394zM262 1051q0 39 28.5 65.5t63.5 26.5q29 0 51.5 -21.5 t22.5 -54.5q0 -41 -29.5 -66.5t-64.5 -25.5q-29 0 -50.5 20.5t-21.5 55.5zM629 1051q0 39 28.5 65.5t63.5 26.5q29 0 51.5 -21.5t22.5 -54.5q0 -41 -31 -66.5t-64 -25.5q-29 0 -50 20.5t-21 55.5z" />
<glyph unicode="&#x152;" horiz-adv-x="1945" d="M115 653q0 166 69.5 316.5t186 263.5t269.5 179.5t318 66.5q76 0 154 -17h823l-16 -127h-719l-65 -534h637l-17 -131h-637l-65 -539h747l-16 -131h-850q-41 -8 -80 -12t-80 -4q-143 0 -264 52t-209 142t-137 213t-49 262zM254 668q0 -115 40 -215.5t111.5 -175 t170 -117.5t215.5 -43q31 0 60.5 2t59.5 8l148 1204q-60 12 -117 12q-135 0 -260 -54t-220 -146t-151.5 -215t-56.5 -260z" />
<glyph unicode="&#x153;" horiz-adv-x="1411" d="M55 365q0 98 40 184t106.5 150.5t154.5 102.5t187 38q68 0 127 -19.5t106 -54.5q55 35 117.5 54.5t128.5 19.5q135 0 225 -81t121 -210q-72 -27 -161 -60.5t-183 -69.5t-186.5 -72t-171.5 -66q27 -84 97.5 -135.5t168.5 -51.5q66 0 127 22.5t108 61.5l74 -80 q-66 -53 -149.5 -83.5t-169.5 -30.5q-68 0 -127.5 18t-106.5 53q-55 -35 -119.5 -53t-132.5 -18q-82 0 -151.5 28.5t-120.5 78.5t-80 120t-29 154zM168 377q0 -59 21.5 -111.5t58.5 -90.5t88 -59.5t113 -21.5q86 0 159 39q-35 47 -52 107.5t-17 124.5q0 92 36.5 174 t100.5 147q-31 18 -70 29.5t-80 11.5q-72 0 -136 -27.5t-113.5 -76t-79 -111.5t-29.5 -135zM653 356q68 27 142.5 55.5t150.5 58.5t150 57.5t135 50.5q-27 70 -85.5 109.5t-135.5 39.5q-72 0 -136.5 -27.5t-113.5 -76t-78 -109.5t-29 -129v-29z" />
<glyph unicode="&#x178;" horiz-adv-x="1300" d="M145 1462h158q29 -61 71 -155.5t89 -200t94 -214t86 -198.5l16 -61l33 61q61 90 134 198.5t144.5 214t135 200t108.5 155.5h160l-659 -952l-64 -510h-141l63 510q-23 45 -56.5 120t-74.5 166t-84 190t-84 190.5t-74.5 166t-54.5 119.5zM520 1657q0 39 29 65.5t63 26.5 q29 0 50.5 -21.5t21.5 -54.5q0 -41 -28.5 -66.5t-63.5 -25.5q-29 0 -50.5 20.5t-21.5 55.5zM887 1657q0 39 28.5 65.5t63.5 26.5q29 0 50.5 -21.5t21.5 -54.5q0 -41 -29 -66.5t-64 -25.5q-29 0 -50 20.5t-21 55.5z" />
<glyph unicode="&#x2c6;" horiz-adv-x="921" d="M352 989l293 373q51 -92 100.5 -186.5t102.5 -186.5h-90q-12 25 -29.5 53.5t-35 59.5t-35 60.5t-29.5 51.5q-18 -23 -43 -52t-51.5 -60t-51 -59.5t-43.5 -53.5h-88z" />
<glyph unicode="&#x2dc;" horiz-adv-x="1220" d="M459 981q8 41 28.5 71.5t49 52t60.5 32t62 10.5q47 0 82 -18.5t64 -53.5t50.5 -46t49.5 -11q14 0 35 4t40 15.5t34.5 32t23.5 50.5l68 -4q-6 -41 -27.5 -71.5t-50.5 -52t-60.5 -32t-62.5 -10.5q-47 0 -80.5 19.5t-62.5 52.5q-29 35 -51.5 46t-51.5 11q-16 0 -35.5 -4 t-39 -15t-34.5 -31.5t-24 -51.5z" />
<glyph unicode="&#x2000;" horiz-adv-x="978" />
<glyph unicode="&#x2001;" horiz-adv-x="1956" />
<glyph unicode="&#x2002;" horiz-adv-x="978" />
<glyph unicode="&#x2003;" horiz-adv-x="1956" />
<glyph unicode="&#x2004;" horiz-adv-x="652" />
<glyph unicode="&#x2005;" horiz-adv-x="489" />
<glyph unicode="&#x2006;" horiz-adv-x="326" />
<glyph unicode="&#x2007;" horiz-adv-x="326" />
<glyph unicode="&#x2008;" horiz-adv-x="244" />
<glyph unicode="&#x2009;" horiz-adv-x="391" />
<glyph unicode="&#x200a;" horiz-adv-x="108" />
<glyph unicode="&#x2010;" horiz-adv-x="641" d="M104 365l15 116h381l-15 -116h-381z" />
<glyph unicode="&#x2011;" horiz-adv-x="641" d="M104 365l15 116h381l-15 -116h-381z" />
<glyph unicode="&#x2012;" horiz-adv-x="641" d="M104 365l15 116h381l-15 -116h-381z" />
<glyph unicode="&#x2013;" horiz-adv-x="890" d="M109 354l14 117h620l-14 -117h-620z" />
<glyph unicode="&#x2014;" horiz-adv-x="1306" d="M109 354l14 117h1036l-14 -117h-1036z" />
<glyph unicode="&#x2018;" horiz-adv-x="372" d="M213.5 1305.5q-16.5 76.5 11.5 162.5l82 -14q-23 -72 -11.5 -133t50.5 -102l-63 -45q-53 55 -69.5 131.5z" />
<glyph unicode="&#x2019;" horiz-adv-x="376" d="M184 1219q49 41 76 102t23 133l84 14q6 -86 -28.5 -162.5t-100.5 -131.5z" />
<glyph unicode="&#x201a;" horiz-adv-x="395" d="M16 -59q47 41 74 102t23 133l84 14q6 -86 -28.5 -162.5t-100.5 -131.5q-29 20 -52 45z" />
<glyph unicode="&#x201c;" horiz-adv-x="585" d="M212.5 1305.5q-15.5 76.5 12.5 162.5l80 -14q-23 -72 -10.5 -133t51.5 -102l-65 -45q-53 55 -68.5 131.5zM427.5 1305.5q-15.5 76.5 12.5 162.5l80 -14q-23 -72 -11.5 -133t50.5 -102q-29 -23 -63 -45q-53 55 -68.5 131.5z" />
<glyph unicode="&#x201d;" horiz-adv-x="589" d="M184 1219q49 41 76 102t23 133l84 14q6 -86 -28.5 -162.5t-100.5 -131.5zM399 1219q47 41 74 102t23 133l86 14q6 -86 -28.5 -162.5t-102.5 -131.5z" />
<glyph unicode="&#x201e;" horiz-adv-x="612" d="M16 -59q47 41 74 102t23 133l84 14q6 -86 -28.5 -162.5t-100.5 -131.5q-29 20 -52 45zM229 -59q49 41 76 102t23 133l84 14q6 -86 -28.5 -162.5t-100.5 -131.5z" />
<glyph unicode="&#x2022;" horiz-adv-x="768" d="M170 596q0 49 20.5 93t54.5 77t78 52.5t91 19.5q86 0 139 -57.5t53 -139.5q0 -49 -20.5 -92t-54 -75t-77.5 -50t-94 -18q-84 0 -137 55t-53 135z" />
<glyph unicode="&#x2026;" horiz-adv-x="1101" d="M74 76q0 39 28.5 65.5t63.5 26.5q29 0 50.5 -21.5t21.5 -54.5q0 -41 -30 -66.5t-63 -25.5q-29 0 -50 20.5t-21 55.5zM410 76q0 39 29.5 65.5t64.5 26.5q29 0 50 -21.5t21 -54.5q0 -41 -29.5 -66.5t-62.5 -25.5q-29 0 -51 20.5t-22 55.5zM748 76q0 39 29.5 65.5t64.5 26.5 q29 0 50 -21.5t21 -54.5q0 -41 -30.5 -66.5t-61.5 -25.5q-29 0 -51 20.5t-22 55.5z" />
<glyph unicode="&#x202f;" horiz-adv-x="391" />
<glyph unicode="&#x2039;" horiz-adv-x="575" d="M84 494q29 25 84 76t114.5 106t115 106.5t83.5 75.5l-16 -137q-25 -23 -55.5 -52.5t-62.5 -61.5t-63.5 -61.5t-56.5 -51.5q18 -23 42 -52.5t48.5 -62.5t48 -63.5t42.5 -53.5l-17 -135z" />
<glyph unicode="&#x203a;" horiz-adv-x="575" d="M78 127l16 135q25 23 55.5 53.5t62.5 63.5t63.5 62.5t56.5 52.5q-18 23 -42 52t-48.5 61t-48 61.5t-41.5 52.5l16 137q23 -25 64.5 -76t88 -106t89.5 -106.5t65 -75.5z" />
<glyph unicode="&#x205f;" horiz-adv-x="489" />
<glyph unicode="&#x20ac;" horiz-adv-x="1112" d="M82 532l8 68h131q2 18 3 36.5t5 39.5q2 18 4.5 36.5t6.5 39.5h-134l9 67h141q31 113 87 211t135 171t177.5 115t214.5 42q78 0 135.5 -19.5t86.5 -35.5l-66 -105q-74 43 -174 43q-90 0 -167 -29.5t-137.5 -86t-104.5 -134.5t-68 -172h461l-9 -67h-467q-4 -14 -5 -27.5 t-3 -28.5q-4 -27 -5 -50t-3 -46h465l-8 -68h-455q6 -109 39 -189.5t83 -134.5t112.5 -81t128.5 -27q47 0 95 14.5t95 39.5l51 -105q-125 -66 -258 -65q-100 0 -185 38.5t-148.5 110.5t-100.5 172.5t-39 226.5h-137z" />
<glyph unicode="&#x2122;" horiz-adv-x="1196" d="M199 1501l6 49h330l-7 -49h-141l-59 -481h-47l59 481h-141zM567 1020l68 553q18 -31 47 -82t60.5 -104.5t59 -102.5t44.5 -76l303 365l-68 -553h-53l47 381q0 6 2 13t2 11q-23 -27 -55.5 -67.5t-68 -84.5t-67.5 -83t-50 -64q-12 20 -39 64.5t-54.5 92.5t-50 89t-28.5 53 v-24l-48 -381h-51z" />
<glyph unicode="&#x25fc;" horiz-adv-x="819" d="M0 0v819h819v-819h-819z" />
<glyph unicode="&#xfb01;" horiz-adv-x="1056" d="M72 709l14 110h141l29 240q31 250 166 376t336 134l-15 -109q-152 -4 -252 -109.5t-122 -291.5l-29 -240h610l-100 -819h-113l86 709h-497l-86 -709h-113l86 709h-141z" />
<glyph unicode="&#xfb02;" horiz-adv-x="1046" d="M72 707l14 110h141l29 242q31 250 166 376t336 134h270l-192 -1569h-113l178 1460h-158q-152 -4 -252 -109.5t-122 -291.5l-29 -242h268l-14 -110h-268l-86 -707h-113l86 707h-141z" />
</font>
</defs>
</svg>
